Welcome Guest ( Log In | Register )

> 

Здесь релизы с живыми прямыми ссылками на lossless

> Dawn Ray'd - Behold Sedition Plainsong (2019), Atmospheric Black Metal
post Oct 24 2019, 13:39:44
Post #1

Serial Uploader
Group Icon
Group: V.I.P
Posts: 36,461
Releases: 34651
From: Lithuania
On Forums: 11 years 5 months
Thanks: 404809 time(s)
Lithuania


(IMG:https://metalarea.org/images/audiocovers/2019_Oct/acov_tid329272_thumb.jpg)

*Artist: Dawn Ray'd
*Album: Behold Sedition Plainsong
*Year: 2019
*Genre: Atmospheric Black Metal
*Country: United Kingdom (IMG:https://metalarea.org/forum/style_images/flags/United%20Kingdom.png)
*Format: mp3@CBR320kbps
*Size: 96MB

Tracklist:
01. Raise the Flails 01:25
02. The Smell of Ancient Dust 03:52
03. Like Smoke into Fog 03:36
04. To All, to All, to All! 03:58
05. A Time for Courage at the Borderlands 04:16
06. Songs in the Key of Compromise 03:32
07. Until the Forge Goes Cold 03:12
08. A Stone's Throw 04:00
09. Soon Will Be the Age of Lessons Learnt 04:26
10. Salvation Rite 05:01
11. The Curse, the Dappled Light 04:23
******************************
Total playing time: 41:41



(IMG:https://metalarea.org/images/youtube.png)

Technical info
(IMG:https://metalarea.org/images/spectrogram/2019_Oct/865dabfdf001243956418f4532cc23a3.png)
Input File: 02 - The Smell of Ancient Dust.mp3
Channels : 2
Sample Rate : 44100
Precision : 16-bit
Duration : 00:03:52.74 = 10263702 samples = 17455.3 CDDA sectors
File Size : 9.39M
Bit Rate : 323k
Sample Encoding: MPEG audio (layer I, II or III)
Comments :
Title=The Smell of Ancient Dust
Artist=Dawn Ray'd
Album=Behold Sedition Plainsong
Tracknumber=2
Year=2019
Genre=Metal
Discnumber=1



Register


Go to the top of the page
  Insert nick Quick quote
+Quote Post
 
Start new topic
Replies (1 - 3)
post Oct 26 2019, 09:46:32
Post #2

Два Литра
**
Group: Завсегдатай
Posts: 164
Releases: 0
From: Лыткарино
On Forums: 6 months 1 week
Thanks: 38 time(s)
Russian Federation


Ерунда, слушать тут нечего. Запись только неплохая.
Go to the top of the page
  Insert nick Quick quote
+Quote Post
post Oct 29 2019, 20:23:22
Post #3

Ёлд ХеллоВяйне
Group Icon
Group: V.I.P
Posts: 28,316
Releases: 132
From: Питер
On Forums: 13 years 3 weeks
Thanks: 16092 time(s)
Russian Federation


Чем-то напомнило осовремененный английский же Рагнарок, только фолковая составляющая значительно меньше.
Go to the top of the page
  Insert nick Quick quote
+Quote Post
post Nov 6 2019, 11:07:12
Post #4


Group Icon
Group: S-moderation team
Posts: 12,596
Releases: 1439
From: Zagreb
On Forums: 8 years 8 months
Thanks: 54642 time(s)
Croatia


Register


Go to the top of the page
  Insert nick Quick quote
+Quote Post

Reply to this topicStart new topic
1 User(s) are reading this topic (1 Guests and 0 Anonymous Users)
0 Members:

 



- Lo-Fi Version Support form
Copyrights and abuse reports form
Time is now: 18th November 2019 - 14:38:22