Welcome Guest ( Log In | Register )

> Enemynside - Chaos Machine (2019), Thrash Metal
post Oct 25 2019, 01:24:45
Post #1

Правь статус, ####!111
**************
Group: Металариец
Posts: 27,430
Releases: 19912
From: Г.Харьков
On Forums: 9 years 4 months
Thanks: 401571 time(s)
Unknown


(IMG:http://metalarea.org/images/audiocovers/2019_Oct/acov_tid329321_thumb.jpg)

*Artist: Enemynside
*Album: Chaos Machine
*Year: 2019
*Genre: Thrash Metal
*Country: Italy (IMG:http://metalarea.org/forum/style_images/flags/Italy.png)
*Format: mp3@CBR320kbps
*Size: 85MB

Tracklist:
1. Faceless
2. Black Mud
3. Suffered Defeat
4. Frozen Prison Cell
5. Deadline
6. System Failure
7. The Terror
8. Shitstorm
9. No God In Kolyma
10. Devoured
******************************
Total playing time: 37:43



Extended info
Francesco Cremisini - vocals/guitar
Matteo Bellezza - guitar
Andrea Pistone - bass
Fabio Migliori - drums


Technical info
(IMG:http://metalarea.org/images/spectrogram/2019_Oct/ccfe6bc82bced809221f4fd054eece45.png)
Input File: 03 - Suffered Defeat.mp3
Channels : 2
Sample Rate : 44100
Precision : 16-bit
Duration : 00:03:53.08 = 10278696 samples = 17480.8 CDDA sectors
File Size : 9.48M
Bit Rate : 325k
Sample Encoding: MPEG audio (layer I, II or III)
Comments :
Title=Suffered Defeat
Artist=Enemynside
Album=Chaos Machine
Tracknumber=3
Year=2019-10-25
Discnumber=1



Register


Go to the top of the page
  Insert nick Quick quote
+Quote Post
 
Start new topic
Replies (1 - 6)
post Oct 25 2019, 12:14:03
Post #2

Шесть Литров
******
Group: Металариец
Posts: 505
Releases: 0
From: Ташкент
On Forums: 13 years 7 months
Thanks: 161 time(s)
Uzbekistan


Вполне достойно!


Thanks:
Go to the top of the page
  Insert nick Quick quote
+Quote Post
post Oct 25 2019, 16:46:46
Post #3

MDM-Thrash Metal
**************
Group: Металариец
Posts: 10,591
Releases: 1320
From: Одесса
On Forums: 14 years 1 month
Thanks: 31858 time(s)
Ukraine


Modern Thrash
Go to the top of the page
  Insert nick Quick quote
+Quote Post
post Oct 25 2019, 16:52:29
Post #4

Два Литра
**
Group: Завсегдатай
Posts: 107
Releases: 0
On Forums: 6 years 6 months
Thanks: 81 time(s)
Unknown


ЦИТАТА(Andrew @ 25th October 2019 - 16:46:46) *
Modern Thrash

Один ган на одном из сайтов хрень написал и понеслось... Олд скул трэш.

Genre
Thrash Metal
Artists We Also Like
Metallica, Testament, Anthrax, Megadeth Slayer, Exodus
Influences
Metallica, Testament
И да. Альбом хорош. Металлика, но не тупое подражание. Достаточно точное определение - именно "Influences".


Thanks:
Go to the top of the page
  Insert nick Quick quote
+Quote Post
post Oct 25 2019, 18:03:26
Post #5

Правь статус, ####!111
**************
Group: Металариец
Posts: 27,430
Releases: 19912
From: Г.Харьков
On Forums: 9 years 4 months
Thanks: 401571 time(s)
Unknown


ЦИТАТА(Hellraiser @ 25th October 2019 - 16:52:29) *
Один ган на одном из сайтов хрень написал и понеслось... Олд скул трэш.

так это ж дубль 80го-с той лишь разницей что тот обложки слушает,а этот теги!
Andrew-ты хоть превью слушай,а не высеры переливалы румяного (IMG:style_emoticons/default/1488.gif)
Modern Thrash!? (IMG:style_emoticons/default/15.gif)


Thanks:
Go to the top of the page
  Insert nick Quick quote
+Quote Post
post Oct 27 2019, 09:24:12
Post #6

Восемь Литров
********
Group: Металариец
Posts: 880
Releases: 0
From: South Of Heaven
On Forums: 14 years 1 month
Thanks: 421 time(s)
Ukraine


Альбом зашёл. (IMG:style_emoticons/default/metaler.gif) Качественный материал,добротный саунд, так и понятно- группе 25лет.
Посвящён я так смотрю,в основном, России..... (IMG:style_emoticons/default/12.gif)
Релизёру (IMG:style_emoticons/default/9.gif) (IMG:style_emoticons/default/9.gif)


Thanks:
Go to the top of the page
  Insert nick Quick quote
+Quote Post
post Oct 28 2019, 22:27:20
Post #7

MDM-Thrash Metal
**************
Group: Металариец
Posts: 10,591
Releases: 1320
From: Одесса
On Forums: 14 years 1 month
Thanks: 31858 time(s)
Ukraine



И это олд скул вы хотите сказать??? ну-ну...

ЦИТАТА(Samaritianin @ Oct 25 2019, 21:03:26) *
Andrew-ты хоть превью слушай

Я тебе скажу больше, что пока хотя бы половину альбома не прослушаю, то выводы не делаю и комментарии не пишу (IMG:style_emoticons/default/bye.gif)
Go to the top of the page
  Insert nick Quick quote
+Quote Post

Reply to this topicStart new topic
2 User(s) are reading this topic (2 Guests and 0 Anonymous Users)
0 Members:

 



- Lo-Fi Version Support form
Copyrights and abuse reports form
Time is now: 25th September 2021 - 03:58:31