Welcome Guest ( Log In | Register )

> И неформату есть предел.

Рэп/хип-хоп/шансон/поп удаляются. Для них есть свои порталы.

> Батюшка - Песнопения (2019), Unblack Metal
post Oct 28 2019, 07:17:35
Post #1

my church is black
**********
Group: Металариец
Posts: 1,104
Releases: 4
On Forums: 4 years 3 months
Thanks: 767 time(s)
Bhutan


(IMG:https://metalarea.org/images/audiocovers/2019_Oct/acov_tid329444_thumb.jpg)

*Artist: Батюшка
*Album: Песнопения
*Year: 2019
*Genre: Unblack Metal
*Country: Russian Federation (IMG:https://metalarea.org/forum/style_images/flags/Russian%20Federation.png)
*Format: mp3@CBR320kbps
*Size: 80MB

Tracklist:
1. Благовест
2. Глас
3. Икона
4. Отче Наш
5. Утреня
6. Блаженны
7. Повечерие
8. Крест
******************************
Total playing time: 34:21



Technical info
(IMG:https://metalarea.org/images/spectrogram/2019_Oct/ab6034fa6bdc9674295c1715138315e4.png)
Input File: 01. Благовест.mp3
Channels : 2
Sample Rate : 44100
Precision : 16-bit
Duration : 00:03:31.03 = 9306511 samples = 15827.4 CDDA sectors
File Size : 8.62M
Bit Rate : 327k
Sample Encoding: MPEG audio (layer I, II or III)
Comments :
Title=Благовест
Artist=Батюшка
Album=Песнопения
Tracknumber=1
Year=2019



Register


Go to the top of the page
  Insert nick Quick quote
+Quote Post
 
Start new topic
Replies (1 - 8)
post Oct 28 2019, 11:13:31
Post #2

Правь статус, ####!111
**************
Group: Металариец
Posts: 49,218
Releases: 869
On Forums: 12 years 3 months
Thanks: 44690 time(s)
Russian Federation


О, очередной Батяня (IMG:style_emoticons/default/15.gif) А их там еще 4 на подходе. Волна хайпа все нарастает.

Но доколе? Сколько мона уже? (IMG:style_emoticons/default/14.gif) (IMG:style_emoticons/default/23.gif)
Go to the top of the page
  Insert nick Quick quote
+Quote Post
post Oct 28 2019, 11:15:30
Post #3

Шесть Литров
******
Group: Металариец
Posts: 514
Releases: 6
On Forums: 3 years 4 months
Thanks: 422 time(s)
Russian Federation


ЦИТАТА(Krosis @ 28th October 2019 - 07:17:35) *
*Стиль: Unblack Metal

Не слушая, кафно и не трухЪ (IMG:style_emoticons/default/25.gif)
Go to the top of the page
  Insert nick Quick quote
+Quote Post
post Oct 28 2019, 11:16:08
Post #4

Два Литра
**
Group: Завсегдатай
Posts: 107
Releases: 0
On Forums: 6 years 6 months
Thanks: 81 time(s)
Unknown


ЦИТАТА(vosmidesijatye @ 28th October 2019 - 11:13:31) *
Но доколе? Сколько мона уже?

Пока статью не введут - будут и петь и играть, и плясать то гавно, что пришло к нам из-за "Железного занавеса".


Thanks:
(1) Brann,
Go to the top of the page
  Insert nick Quick quote
+Quote Post
post Oct 28 2019, 11:18:25
Post #5

Шесть Литров
******
Group: Металариец
Posts: 514
Releases: 6
On Forums: 3 years 4 months
Thanks: 422 time(s)
Russian Federation


ЦИТАТА(Krosis @ 28th October 2019 - 11:17:04) *
добавлено just for lulz

А, ну тогда спасибо за труды. Правда, пока угарнуть не удалось. Но может комменты помогут этому осуществиться)
Go to the top of the page
  Insert nick Quick quote
+Quote Post
post Oct 28 2019, 11:21:05
Post #6

Full-of-Hate
**************
Group: Металариец
Posts: 4,483
Releases: 0
From: Moscow
On Forums: 12 years 2 months
Thanks: 4747 time(s)
Russian Federation


Зае...
 ! 

мат-бан
 
уже эти Батюшки...
Уже все пошутили, все посмеялись. Ку-ку, уже опоздали на пару лет с этим шутовством!
До некоторых шутка доходит как до жирафа и появляются еще вот такие проекты...
Сделано, кстати, на примитивном любительском дешевом уровне.
(IMG:style_emoticons/default/normal_Homerdisgust3s.png)
Reason for edit: Мат = бан!


Thanks:
Go to the top of the page
  Insert nick Quick quote
+Quote Post
post Oct 28 2019, 11:58:23
Post #7

Правь статус, ####!111
**************
Group: Металариец
Posts: 49,218
Releases: 869
On Forums: 12 years 3 months
Thanks: 44690 time(s)
Russian Federation


ЦИТАТА(Krosis @ Oct 28 2019, 13:22:04) *


Возможно, это еще не последний далеко (IMG:style_emoticons/default/25.gif)
Go to the top of the page
  Insert nick Quick quote
+Quote Post
post Oct 28 2019, 15:15:15
Post #8

Cultist
**************
Group: Металариец
Posts: 4,437
Releases: 1335
From: Koenigsberg
On Forums: 14 years 8 months
Thanks: 9220 time(s)
Russian Federation


Бабушка - Пенсионная...


Go to the top of the page
  Insert nick Quick quote
+Quote Post
post Oct 28 2019, 16:54:57
Post #9

Мегаманьяк
***********
Group: Металариец
Posts: 1,953
Releases: 1
On Forums: 6 years 10 months
Thanks: 721 time(s)
Tajikistan




(IMG:http://forum.igromania.ru/images/smilies/icon_dance.gif)


Thanks:
(1) Kwaad,
Go to the top of the page
  Insert nick Quick quote
+Quote Post

Reply to this topicStart new topic
1 User(s) are reading this topic (1 Guests and 0 Anonymous Users)
0 Members:

 



- Lo-Fi Version Support form
Copyrights and abuse reports form
Time is now: 25th September 2021 - 04:20:31