Welcome Guest ( Log In | Register )

> И неформату есть предел.

Рэп/хип-хоп/шансон/поп удаляются. Для них есть свои порталы.

> Батюшка - Господи Иисусе (2019), Unblack Metal
post Oct 28 2019, 07:45:43
Post #1

my church is black
********
Group: Металариец
Posts: 856
Releases: 1
On Forums: 2 years 5 months
Thanks: 491 time(s)
Cape Verde


(IMG:https://metalarea.org/images/audiocovers/2019_Oct/acov_tid329448_thumb.jpg)

*Artist: Батюшка
*Album: Господи Иисусе
*Year: 2019
*Genre: Unblack Metal
*Country: Russian Federation (IMG:https://metalarea.org/forum/style_images/flags/Russian%20Federation.png)
*Format: mp3@VBR293kbps
*Size: 89MB

Tracklist:
1. Колокольный Звон
2. Матерь Божия
3. Крест Святой
4. Монах
5. Благодать
6. И Воссияет Крест В Небесах!
7. Открой Мне, Боже, Дверь Спасения!
8. Спаси Нас, Боже, Грешных!
******************************
Total playing time: 41:37



Technical info
(IMG:https://metalarea.org/images/spectrogram/2019_Oct/5785e24ebcfd3eb31a05691b8095dde1.png)
Input File: 02. Матерь Божия.mp3
Channels : 2
Sample Rate : 44100
Precision : 16-bit
Duration : 00:04:44.63 = 12552183 samples = 21347.2 CDDA sectors
File Size : 9.84M
Bit Rate : 276k
Sample Encoding: MPEG audio (layer I, II or III)
Comments :
Title=Матерь Божия
Artist=Батюшка
Album=Господи Иисусе
Tracknumber=2
Year=2019



Register


Thanks:
Go to the top of the page
  Insert nick Quick quote
+Quote Post
 
Start new topic
Replies (1 - 5)
post Oct 29 2019, 11:49:38
Post #2

Правь статус, ####!111
**************
Group: Металариец
Posts: 44,147
Releases: 679
On Forums: 10 years 5 months
Thanks: 35413 time(s)
Russian Federation


Сколько пафоса...
Go to the top of the page
  Insert nick Quick quote
+Quote Post
post Oct 29 2019, 14:34:05
Post #3

Шесть Литров
******
Group: Металариец
Posts: 525
Releases: 0
On Forums: 1 year 4 months
Thanks: 459 time(s)
Unknown


Шо, опять?
Krosis, ну ладно, ты одних закинул смеха ради. Зачем остальных-то тащить?


Thanks:
Go to the top of the page
  Insert nick Quick quote
+Quote Post
post Oct 29 2019, 14:59:06
Post #4

Правь статус, ####!111
**************
Group: Металариец
Posts: 44,147
Releases: 679
On Forums: 10 years 5 months
Thanks: 35413 time(s)
Russian Federation


ЦИТАТА(plfan93 @ Oct 29 2019, 16:34:05) *
Зачем остальных-то тащить?


А шоб было (IMG:style_emoticons/default/1488.gif)
Go to the top of the page
  Insert nick Quick quote
+Quote Post
post Oct 29 2019, 15:02:29
Post #5

Leegte
***********
Group: Металариец
Posts: 1,582
Releases: 14
From: Kiovia
On Forums: 7 years 7 months
Thanks: 2264 time(s)
Ukraine


Лица из икон вырезали, б-гохульники х-евы.

QUOTE
8. Спаси Нас, Боже, Грешных!

Нет вам спасения, ибо продали вы душу Сатане.
Go to the top of the page
  Insert nick Quick quote
+Quote Post
post Oct 29 2019, 15:41:37
Post #6

frost junkie
*****
Group: Металариец
Posts: 419
Releases: 8
On Forums: 10 years 10 months
Thanks: 354 time(s)
Ukraine


Один монах вошёл в склеп к покойникам и крикнул: "Христос воскресе!" А они ему все хором: "Воистину воскресе!"
Go to the top of the page
  Insert nick Quick quote
+Quote Post

Reply to this topicStart new topic
1 User(s) are reading this topic (1 Guests and 0 Anonymous Users)
0 Members:

 



- Lo-Fi Version Support form
Copyrights and abuse reports form
Time is now: 20th November 2019 - 10:40:07