Welcome Guest ( Log In | Register )

> И неформату есть предел.

Рэп/хип-хоп/шансон/поп удаляются. Для них есть свои порталы.

> Батюшка - Молитвы (2019), Unblack Metal
post Oct 28 2019, 07:52:10
Post #1

my church is black
********
Group: Металариец
Posts: 856
Releases: 1
On Forums: 2 years 5 months
Thanks: 491 time(s)
Cape Verde


(IMG:https://metalarea.org/images/audiocovers/2019_Oct/acov_tid329450_thumb.jpg)

*Artist: Батюшка
*Album: Молитвы
*Year: 2019
*Genre: Unblack Metal
*Country: Russian Federation (IMG:https://metalarea.org/forum/style_images/flags/Russian%20Federation.png)
*Format: mp3@VBR276kbps
*Size: 71MB

Tracklist:
1. Молитва 1
2. Молитва 2
3. Молитва 3
4. Молитва 4
5. Молитва 5
6. Молитва 6
7. Молитва 7
8. Молитва 8
******************************
Total playing time: 35:16



Technical info
(IMG:https://metalarea.org/images/spectrogram/2019_Oct/193e20630b94e82a8878ee2234c68560.png)
Input File: 01. Молитва 1.mp3
Channels : 2
Sample Rate : 44100
Precision : 16-bit
Duration : 00:04:08.35 = 10952059 samples = 18626 CDDA sectors
File Size : 8.50M
Bit Rate : 274k
Sample Encoding: MPEG audio (layer I, II or III)
Comments :
Title=Молитва 1
Artist=Батюшка
Album=Молитвы
Tracknumber=1
Year=2019



Register


Thanks:
Go to the top of the page
  Insert nick Quick quote
+Quote Post
 
Start new topic
Replies (1 - 5)
post Oct 29 2019, 15:02:27
Post #2

Правь статус, ####!111
**************
Group: Металариец
Posts: 44,145
Releases: 679
On Forums: 10 years 5 months
Thanks: 35413 time(s)
Russian Federation


Орихиналы. Названия трэков даже не могли придумать свои, фишку у первого Батяни потырили (IMG:style_emoticons/default/hung.gif)
Go to the top of the page
  Insert nick Quick quote
+Quote Post
post Oct 29 2019, 15:13:56
Post #3

Шесть Литров
******
Group: Металариец
Posts: 525
Releases: 0
On Forums: 1 year 4 months
Thanks: 459 time(s)
Unknown


Самая днищанская обложка из всех "батюшек".
Go to the top of the page
  Insert nick Quick quote
+Quote Post
post Oct 29 2019, 15:25:46
Post #4

Девять Литров
*********
Group: Металариец
Posts: 908
Releases: 0
From: Харьков
On Forums: 11 years 8 months
Thanks: 701 time(s)
Ukraine


Музыку походу сочинили до того как решили хайпануть на "батюшках". В целом неплохой инструментал.
Go to the top of the page
  Insert nick Quick quote
+Quote Post
post Oct 29 2019, 19:50:07
Post #5

ретроград
**************
Group: Металариец
Posts: 4,912
Releases: 181
On Forums: 12 years 5 months
Thanks: 7255 time(s)
Vatican City


По ходу на коленях сидит молодой Пушкин...


Thanks:
Go to the top of the page
  Insert nick Quick quote
+Quote Post
post Oct 29 2019, 19:52:28
Post #6

Правь статус, ####!111
**************
Group: Металариец
Posts: 44,145
Releases: 679
On Forums: 10 years 5 months
Thanks: 35413 time(s)
Russian Federation


ЦИТАТА(Kazoth @ Oct 29 2019, 21:50:07) *
По ходу на коленях сидит молодой Пушкин...


У арины радионовны?
Go to the top of the page
  Insert nick Quick quote
+Quote Post

Reply to this topicStart new topic
1 User(s) are reading this topic (1 Guests and 0 Anonymous Users)
0 Members:

 



- Lo-Fi Version Support form
Copyrights and abuse reports form
Time is now: 20th November 2019 - 10:12:20