Welcome Guest ( Log In | Register )

> И неформату есть предел.

Рэп/хип-хоп/шансон/поп удаляются. Для них есть свои порталы.

 
Reply to this topicStart new topic
> Various Artists - Sonic Seducer: Cold Hands Seduction 212 [compilation] (2019), Various Gothic
post Oct 28 2019, 15:00:06
Post #1

Мегаманьяк
***********
Group: Металариец
Posts: 1,706
Releases: 463
On Forums: 11 years 6 months
Thanks: 6495 time(s)
Ireland


(IMG:https://metalarea.org/images/audiocovers/2019_Oct/acov_tid329464_thumb.jpg)

*Artist: Various Artists
*Album: Sonic Seducer: Cold Hands Seduction 212 [compilation]
*Year: 2019
*Genre: Various Gothic
*Country: Many (IMG:https://metalarea.org/forum/style_images/flags/Many.png)
*Format: mp3@CBR320kbps
*Size: 165MB

Tracklist:
1. Mister Misery - Alive
2. Lacuna Coil - Reckless (Etage Music Mix)
3. Maerzfeld - Einer Wie Alle
4. Merciful Nuns - Black Halo
5. Elane - The Tavern Song
6. Dreadthesun - Liquid
7. Empirion - Too Many Masters Part 2
8. Psy'Aviah feat. Mari Kattman - Searching
9. Rue Oberkampf - Es Versucht
10. Fïx8:Sëd8 - Empyrean
11. Collapse Under The Empire - Everything Disappears
12. Unity One - Reality (Frozen Plasma Remix)
13. Bysmarque & Snowwhyte - Menschmaschine
14. Mental Exile - Falling
15. Cantus Levitas - Karges Land
16. Inadream - Red Light
******************************
Total playing time: 1:13:44

Technical info
(IMG:https://metalarea.org/images/spectrogram/2019_Oct/5e651c0120c62c16867e1fc40e34272e.png)
Input File: 10 Empyrean.mp3
Channels : 2
Sample Rate : 44100
Precision : 16-bit
Duration : 00:07:23.74 = 19569066 samples = 33280.7 CDDA sectors
File Size : 17.9M
Bit Rate : 322k
Sample Encoding: MPEG audio (layer I, II or III)
Comments :
Title=Empyrean
Artist=Fïx8:Sëd8
Album=Cold Hands Seduction Vol. 212
Tracknumber=10/16
Year=2019



Register


Go to the top of the page
  Insert nick Quick quote
+Quote Post

Reply to this topicStart new topic
4 User(s) are reading this topic (4 Guests and 0 Anonymous Users)
0 Members:

 



- Lo-Fi Version Support form
Copyrights and abuse reports form
Time is now: 18th November 2019 - 15:33:21