Welcome Guest ( Log In | Register )

> И неформату есть предел.

Рэп/хип-хоп/шансон/поп удаляются. Для них есть свои порталы.

> Windtower - The Eldest One (2019), Ambient/Dungeon Synth
post Oct 28 2019, 20:26:16
Post #1

Три Литра
***
Group: Завсегдатай
Posts: 283
Releases: 174
On Forums: 10 years 8 months
Thanks: 1794 time(s)
Russian Federation


(IMG:https://metalarea.org/images/audiocovers/2019_Oct/acov_tid329483_thumb.jpg)

*Artist: Windtower
*Album: The Eldest One
*Year: 2019
*Genre: Ambient/Dungeon Synth
*Country: Hungary (IMG:https://metalarea.org/forum/style_images/flags/Hungary.png)
*Format: mp3@CBR320kbps
*Size: 60MB

Tracklist:
01. Age Of The Fallen Blades 05:16
02. A Dusty Spellbook Of Ancient Wizardry 05:43
03. Forgotten Melodies From Beyond The Abyssal Gate 05:38
04. The Eldest One 06:35
05. One Last Merry Night 03:48
******************************
Total playing time: 27:00



Technical info
(IMG:https://metalarea.org/images/spectrogram/2019_Oct/b67daee9623e3ed1d31e0eed28e64c85.png)
Input File: 01 - Age Of The Fallen Blades.mp3
Channels : 2
Sample Rate : 44100
Precision : 16-bit
Duration : 00:05:17.00 = 13979876 samples = 23775.3 CDDA sectors
File Size : 12.7M
Bit Rate : 320k
Sample Encoding: MPEG audio (layer I, II or III)
Comments :
Title=Age Of The Fallen Blades
Artist=WINDTOWER
Album=The Eldest One
Tracknumber=1
Year=2019



Register


Go to the top of the page
  Insert nick Quick quote
+Quote Post
 
Start new topic
Replies (1 - 2)
post Oct 29 2019, 11:52:06
Post #2

Правь статус, ####!111
**************
Group: Металариец
Posts: 44,055
Releases: 674
On Forums: 10 years 5 months
Thanks: 35343 time(s)
Russian Federation


Отличный величественный и проникновенный дунжн.

Релизы подобного жанра нам тащемта очень нужны на портале.
Go to the top of the page
  Insert nick Quick quote
+Quote Post
post Nov 4 2019, 17:24:06
Post #3

Group: Подсевший
Posts: 21
Releases: 0
On Forums: 2 weeks 6 days
Thanks: 7 time(s)
Unknown


Отличный образец Данж Синта (IMG:style_emoticons/default/20.gif)
Go to the top of the page
  Insert nick Quick quote
+Quote Post

Reply to this topicStart new topic
1 User(s) are reading this topic (1 Guests and 0 Anonymous Users)
0 Members:

 



- Lo-Fi Version Support form
Copyrights and abuse reports form
Time is now: 18th November 2019 - 05:08:23