Welcome Guest ( Log In | Register )

> И неформату есть предел.

Рэп/хип-хоп/шансон/поп удаляются. Для них есть свои порталы.

 
Reply to this topicStart new topic
> Hopes Die Last - Six Years Home (2009), Post-Hardcore
post Oct 29 2019, 11:51:11
Post #1

Alexander Voskresensky
***
Group: Завсегдатай
Posts: 299
Releases: 19
From: Москва
On Forums: 11 years 9 months
Thanks: 133 time(s)
Russian Federation


(IMG:http://metalarea.org/images/audiocovers/2019_Oct/acov_tid329497_thumb.jpg)

*Artist: Hopes Die Last
*Album: Six Years Home
*Year: 2009
*Genre: Post-Hardcore
*Country: Italy (IMG:http://metalarea.org/forum/style_images/flags/Italy.png)
*Format: mp3@CBR320kbps
*Size: 90MB

Tracklist:
1. Some Like It Cold 4:01
2. Ever The Same, And Always Will Be 3:38
3. Call Me Sick Boy 3:41
4. An Endless Serenade 1:43
5. Under This Red Sky 4:17
6. Good Mourning, Honey 3:38
7. Consider Me Alive 3:24
8. Stuck Inside My Head 3:37
9. Johnny's Light Sucks 4:10
10. Six Years Home 4:22
******************************
Total playing time: 36:31

Technical info
(IMG:http://metalarea.org/images/spectrogram/2019_Oct/94680019f2cdf34a166b4f0a04b7ded1.png)
Input File: 1. Some Like It Cold.mp3
Channels : 2
Sample Rate : 44100
Precision : 16-bit
Duration : 00:04:01.89 = 10667129 samples = 18141.4 CDDA sectors
File Size : 9.80M
Bit Rate : 324k
Sample Encoding: MPEG audio (layer I, II or III)
Comments :
Title=Some Like It Cold
Artist=Hopes Die Last
Album=Six Years Home
Tracknumber=1/10
Year=2009
Genre=Post-hardcore
Discnumber=1/1



Register


Thanks:
(1) Olethros,
Go to the top of the page
  Insert nick Quick quote
+Quote Post

Reply to this topicStart new topic
1 User(s) are reading this topic (1 Guests and 0 Anonymous Users)
0 Members:

 



- Lo-Fi Version Support form
Copyrights and abuse reports form
Time is now: 18th November 2019 - 14:15:35