Welcome Guest ( Log In | Register )

> И неформату есть предел.

Рэп/хип-хоп/шансон/поп удаляются. Для них есть свои порталы.

> Crowler - Fuck Them All [ep] (2019), Instrumental Psychedelic/Stoner Rock
post Oct 30 2019, 08:09:27
Post #1

Cultist
**************
Group: Металариец
Posts: 4,170
Releases: 1319
From: Koenigsberg
On Forums: 12 years 10 months
Thanks: 8282 time(s)
Russian Federation


(IMG:http://metalarea.org/images/audiocovers/2019_Oct/acov_tid329524_thumb.jpg)

*Artist: Crowler
*Album: Fuck Them All [ep]
*Year: 2019
*Genre: Instrumental Psychedelic/Stoner Rock
*Country: France (IMG:http://metalarea.org/forum/style_images/flags/France.png)
*Format: mp3@CBR320kbps
*Size: 63MB

Tracklist:
1. Fuck Them All 06:25
2. The Crowler 05:38
3. Doomin' 04:12
4. Crossing The Line 05:05
5. Anger 06:29
******************************
Total playing time: 27:49



Technical info
(IMG:http://metalarea.org/images/spectrogram/2019_Oct/839d2711abc63ecd25644ddf5232f560.png)
Input File: 03 - Doomin\'.mp3
Channels : 2
Sample Rate : 44100
Precision : 16-bit
Duration : 00:04:12.77 = 11147333 samples = 18958 CDDA sectors
File Size : 10.1M
Bit Rate : 320k
Sample Encoding: MPEG audio (layer I, II or III)
Comments :
Title=Doomin'
Artist=Crowler
Album=Fuck Them All EP
Tracknumber=3
Year=2019
Genre=Instrumental Psychedelic/Stoner Rock



Register


Thanks:
Go to the top of the page
  Insert nick Quick quote
+Quote Post
 
Start new topic
Replies (1 - 1)
post Oct 31 2019, 07:05:16
Post #2

Cultist
**************
Group: Металариец
Posts: 4,170
Releases: 1319
From: Koenigsberg
On Forums: 12 years 10 months
Thanks: 8282 time(s)
Russian Federation


Хорошо
И дело не только в облоге (IMG:style_emoticons/default/18.gif)
Go to the top of the page
  Insert nick Quick quote
+Quote Post

Reply to this topicStart new topic
1 User(s) are reading this topic (1 Guests and 0 Anonymous Users)
0 Members:

 



- Lo-Fi Version Support form
Copyrights and abuse reports form
Time is now: 20th November 2019 - 10:04:54