Welcome Guest ( Log In | Register )

> Post Luctum - After Mourning [ep] (2019), Death/Doom Metal
post Oct 30 2019, 14:16:40
Post #1

MDM-Thrash Metal
**************
Group: Металариец
Posts: 9,341
Releases: 790
From: Одесса
On Forums: 12 years 7 months
Thanks: 21292 time(s)
Ukraine


(IMG:http://metalarea.org/images/audiocovers/2019_Oct/acov_tid329548_thumb.jpg)

*Artist: Post Luctum
*Album: After Mourning [ep]
*Year: 2019
*Genre: Death/Doom Metal
*Country: United States (IMG:http://metalarea.org/forum/style_images/flags/United%20States.png)
*Format: mp3@CBR320kbps
*Size: 57MB

Tracklist:
1. The Colossus 06:18
2. Complacent Curse 05:37
3. Hallows Eve 05:33
4. Earthbound 06:46
******************************
Total playing time: 24:14



(IMG:http://metalarea.org/images/youtube.png)

Technical info
(IMG:http://metalarea.org/images/spectrogram/2019_Oct/26349d969b902ed4cec6c62363ef6968.png)
Input File: Post Luctum - After Mourning - 02 Complacent Curse.mp3
Channels : 2
Sample Rate : 44100
Precision : 16-bit
Duration : 00:05:37.08 = 14865052 samples = 25280.7 CDDA sectors
File Size : 13.6M
Bit Rate : 323k
Sample Encoding: MPEG audio (layer I, II or III)
Comments :
Title=Complacent Curse
Artist=Post Luctum
Album=After Mourning
Tracknumber=2
Year=2019



Register


Register


Go to the top of the page
  Insert nick Quick quote
+Quote Post
 
Start new topic
Replies (1 - 1)
post Oct 31 2019, 12:27:35
Post #2

Литр
*
Group: Подсевший
Posts: 64
Releases: 0
On Forums: 1 year 3 months
Thanks: 8 time(s)
Russian Federation


Нравится с первых пятнадцати секунд, что бывает крайне редко. Очень мощно, напористо и мрачно.


Thanks:
(1) Andrew,
Go to the top of the page
  Insert nick Quick quote
+Quote Post

Reply to this topicStart new topic
2 User(s) are reading this topic (2 Guests and 0 Anonymous Users)
0 Members:

 



- Lo-Fi Version Support form
Copyrights and abuse reports form
Time is now: 1st April 2020 - 19:35:50