Welcome Guest ( Log In | Register )

> И неформату есть предел.

Рэп/хип-хоп/шансон/поп удаляются. Для них есть свои порталы.

 
Reply to this topicStart new topic
> Jaded Heart - Inside Out (1994), Hard Rock (D9)
post Oct 31 2019, 06:26:12
Post #1

Семь Литров
*******
Group: Металариец
Posts: 706
Releases: 31
From: Vladivostok
On Forums: 10 years 2 weeks
Thanks: 1026 time(s)
Russian Federation


(IMG:http://metalarea.org/images/audiocovers/2019_Oct/acov_tid329566_thumb.jpg)

*Artist: Jaded Heart
*Album: Inside Out
*Year: 1994
*Genre: Hard Rock
*Country: Germany (IMG:http://metalarea.org/forum/style_images/flags/Germany.png)
*Format: mp3@CBR320kbps
*Size: 129MB

Tracklist:
01. Inside Out 04:58
02. Mama 04:40
03. How Many Tears 04:38
04. Excuse 04:10
05. Hold On 04:42
06. Hard To Stay Alive 04:07
07. So Damn Easy 04:39
08. Listen 03:17
09. Won't Be Losin' 02:43
10. Burning For Love 04:59
11. Surrender 04:28
12. Take Me Back 03:58
13. Missing You 05:15
******************************
Total playing time: 56:34

Extended info
Bass Guitar – Michael Müller
Drums – Axel Kruse
Guitar – Dirk Bormann
Vocals – Michael Bormann


Technical info
(IMG:http://metalarea.org/images/spectrogram/2019_Oct/2276ad209459f59d3d39b51d8141a3a8.png)
Input File: 01.Inside Out.mp3
Channels : 2
Sample Rate : 44100
Precision : 16-bit
Duration : 00:04:56.56 = 13078340 samples = 22242.1 CDDA sectors
File Size : 11.9M
Bit Rate : 321k
Sample Encoding: MPEG audio (layer I, II or III)
Comments :
Title=Inside Out
Artist=Jaded Heart
Album=Inside Out
Tracknumber=1
Year=1994



Register


Thanks:
Go to the top of the page
  Insert nick Quick quote
+Quote Post

Reply to this topicStart new topic
1 User(s) are reading this topic (1 Guests and 0 Anonymous Users)
0 Members:

 



- Lo-Fi Version Support form
Copyrights and abuse reports form
Time is now: 18th November 2019 - 14:18:21