Welcome Guest ( Log In | Register )

> И неформату есть предел.

Рэп/хип-хоп/шансон/поп удаляются. Для них есть свои порталы.

 
Reply to this topicStart new topic
> Thundermother - Rock 'n' Roll Disaster (2014), Hard Rock
post Nov 1 2019, 03:54:31
Post #1

Семь Литров
*******
Group: Металариец
Posts: 706
Releases: 31
From: Vladivostok
On Forums: 10 years 2 weeks
Thanks: 1026 time(s)
Russian Federation


(IMG:http://metalarea.org/images/audiocovers/2019_Nov/acov_tid329635_thumb.jpg)

*Artist: Thundermother
*Album: Rock 'n' Roll Disaster
*Year: 2014
*Genre: Hard Rock
*Country: Sweden (IMG:http://metalarea.org/forum/style_images/flags/Sweden.png)
*Format: mp3@CBR320kbps
*Size: 79MB

Tracklist:
01. Man With Blues 04:31
02. Deranged 03:30
03. The Dangerous Kind 03:09
04. Rock 'N' Roll Disaster 03:24
05. Thunderous 04:18
06. Please Me 02:29
07. Shoot To Kill 04:19
08. One For The Road 03:07
09. Cheers 02:58
10. Saturday 02:26
******************************
Total playing time: 34:11

Preview 1

Extended info
Clare Cunningham - Vocals
Filippa Nassil - Guitars
Giorgia Carteri - Guitars
Linda Strom - Bass
Tilda Stenqvist - Drums


Technical info
(IMG:http://metalarea.org/images/spectrogram/2019_Nov/8df7469641b048d661464c4c919d67e7.png)
Input File: 01 - Man With Blues.mp3
Channels : 2
Sample Rate : 44100
Precision : 16-bit
Duration : 00:04:32.06 = 11997714 samples = 20404.3 CDDA sectors
File Size : 11.0M
Bit Rate : 323k
Sample Encoding: MPEG audio (layer I, II or III)
Comments :
Title=Man With Blues
Artist=Thundermother
Album=Rock 'N' Roll Disaster
Tracknumber=1
Year=2014
Genre=Hard Rock



Register


Thanks:
(1) Olethros,
Go to the top of the page
  Insert nick Quick quote
+Quote Post

Reply to this topicStart new topic
1 User(s) are reading this topic (1 Guests and 0 Anonymous Users)
0 Members:

 



- Lo-Fi Version Support form
Copyrights and abuse reports form
Time is now: 18th November 2019 - 14:37:40