Welcome Guest ( Log In | Register )

> 

Здесь релизы с живыми прямыми ссылками на lossless

> Qayin Regis - Doctrine (2019), Black Metal
post Nov 1 2019, 04:13:42
Post #1

Правь статус, ####!111
**************
Group: Металариец
Posts: 4,790
Releases: 1471
From: Brazil
On Forums: 9 years 2 months
Thanks: 54702 time(s)
Brazil


(IMG:https://metalarea.org/images/audiocovers/2019_Nov/acov_tid329636_thumb.jpg)

*Artist: Qayin Regis
*Album: Doctrine
*Year: 2019
*Genre: Black Metal
*Country: Spain (IMG:https://metalarea.org/forum/style_images/flags/Spain.png)
*Format: mp3@CBR320kbps
*Size: 98MB

Tracklist:
1. Via Sincretica Obscura 08:34
2. Yee Naaldlooshii 11:33
3. Neenia Ataecina 10:05
4. Deo Aironis 11:56
******************************
Total playing time: 42:08




Technical info
(IMG:https://metalarea.org/images/spectrogram/2019_Nov/8f4389634c92f5a848e5eb1215dbacde.png)
Input File: 04 Deo Aironis.mp3
Channels : 2
Sample Rate : 44100
Precision : 16-bit
Duration : 00:11:55.12 = 31536572 samples = 53633.6 CDDA sectors
File Size : 28.6M
Bit Rate : 320k
Sample Encoding: MPEG audio (layer I, II or III)
Comments :
Title=Deo Aironis
Artist=Qayin Regis
Album=Doctrine
Tracknumber=4
Year=2019



Register


Go to the top of the page
  Insert nick Quick quote
+Quote Post
 
Start new topic
Replies (1 - 4)
post Nov 9 2019, 13:00:16
Post #2

Правь статус, ####!111
**************
Group: Металариец
Posts: 2,225
Releases: 1782
From: Praha
On Forums: 7 years 1 week
Thanks: 47005 time(s)
Czech Republic


(IMG:https://i111.fastpic.ru/big/2019/1109/96/97e96354ab5f5f83359de78056274e96.jpg)

Qayin Regis - 2019 - Doctrine
BlackSeed Productions

Bandcamp 320 Kbps + Scans @ Yadi.sk
Register


Go to the top of the page
  Insert nick Quick quote
+Quote Post
post Feb 23 2020, 11:02:38
Post #3

Семь Литров
*******
Group: Металариец
Posts: 795
Releases: 9
From: Беларусь
On Forums: 13 years 9 months
Thanks: 270 time(s)
Belarus


Неплохо так, релизы лэйбла радуют
Go to the top of the page
  Insert nick Quick quote
+Quote Post
post Jan 14 2021, 22:15:20
Post #4
BAN
Banned till
Jul 19 2021, 12:10:29



Register


Thanks:
(1) Occultas,
Go to the top of the page
  Insert nick Quick quote
+Quote Post
post Jan 15 2021, 06:48:55
Post #5

Group Icon
Group: S-moderation team
Posts: 20,347
Releases: 1441
From: Zagreb
On Forums: 10 years 1 month
Thanks: 93344 time(s)
Croatia


Register


Go to the top of the page
  Insert nick Quick quote
+Quote Post

Reply to this topicStart new topic
1 User(s) are reading this topic (1 Guests and 0 Anonymous Users)
0 Members:

 



- Lo-Fi Version Support form
Copyrights and abuse reports form
Time is now: 21st April 2021 - 16:09:13