Welcome Guest ( Log In | Register )

> Sunless Rise - Ultimacy (2019), Melodic Death Metal
post Nov 1 2019, 15:52:37
Post #1

Правь статус, ####!111
**************
Group: Металариец
Posts: 25,223
Releases: 17976
From: Г.Харьков
On Forums: 8 years 9 months
Thanks: 351675 time(s)
Unknown


(IMG:http://metalarea.org/images/audiocovers/2019_Nov/acov_tid329651_thumb.jpg)

*Artist: Sunless Rise
*Album: Ultimacy
*Year: 2019
*Genre: Melodic Death Metal
*Country: Russian Federation (IMG:http://metalarea.org/forum/style_images/flags/Russian%20Federation.png)
*Format: mp3@CBR320kbps
*Size: 130MB

Tracklist:
1. The Prophecy 05:01
2. The Seekers 06:04
3. Into The Nightmare 04:44
4. Storms Of Sorrow 04:42
5. The Aerial Gateway 04:51
6. Lethargy 04:41
7. The Warden Of Grief 05:00
8. No Forgiveness 04:19
9. The Suicide Hollow 04:33
10. The Foreshadow 02:10
11. The Clash 07:10
12. The Elixir Of Doom 05:29
******************************
Total playing time: 58:44




Extended info
Ivan Smirnov – Vocals
Pavel Mikhaylov – Guitars
Sergei Shulzhenko – Keyboards
Alex Becker – Bass
Alexey Mallovsky – Drums


Technical info
(IMG:http://metalarea.org/images/spectrogram/2019_Nov/4c8ba19eadb7654810c6a69d5348c8a1.png)
Input File: 07 - The Warden Of Grief.mp3
Channels : 2
Sample Rate : 44100
Precision : 16-bit
Duration : 00:05:00.50 = 13252050 samples = 22537.5 CDDA sectors
File Size : 12.0M
Bit Rate : 320k
Sample Encoding: MPEG audio (layer I, II or III)
Comments :
Title=The Warden Of Grief
Artist=Sunless Rise
Album=Ultimacy
Tracknumber=7
Year=2019
Genre=Metal



Register


Go to the top of the page
  Insert nick Quick quote
+Quote Post
 
Start new topic
Replies (1 - 4)
post Nov 2 2019, 09:27:27
Post #2

Четыре Литра
****
Group: Металариец
Posts: 353
Releases: 5
On Forums: 13 years 11 months
Thanks: 286 time(s)
Russian Federation


Из превью такой инсомниумновщиной потянуло, ух

ЗЫ Почему в клип воткнули столько повторяющихся кадров? При чем в течение одной минуты повтор происходит, что сильно бросается в глаза
Go to the top of the page
  Insert nick Quick quote
+Quote Post
post Nov 2 2019, 09:34:29
Post #3

Волк без яблока
**************
Group: Металариец
Posts: 13,596
Releases: 108
From: Санкт-Петербург
On Forums: 14 years 5 months
Thanks: 15815 time(s)
Russian Federation


Альбом странный какой-то, вроде песни начинаются как хороший модерн, но потом появляется этот непонятный чистый вокал, который я даже не знаю, как охарактеризовать. К седьмому треку я понял, что всё как-то идёт мимо меня, и выключил.
Go to the top of the page
  Insert nick Quick quote
+Quote Post
post Nov 5 2019, 03:38:50
Post #4

Ъ
**************
Group: Металариец
Posts: 10,479
Releases: 9
On Forums: 12 years 1 month
Thanks: 2150 time(s)
Sweden


Третьесорт.
Go to the top of the page
  Insert nick Quick quote
+Quote Post
post Feb 23 2021, 19:30:52
Post #5

Семь Литров
*******
Group: Металариец
Posts: 741
Releases: 0
From: Sweden
On Forums: 11 years 11 months
Thanks: 21 time(s)
Sweden


Thank you.
Go to the top of the page
  Insert nick Quick quote
+Quote Post

Reply to this topicStart new topic
1 User(s) are reading this topic (1 Guests and 0 Anonymous Users)
0 Members:

 



- Lo-Fi Version Support form
Copyrights and abuse reports form
Time is now: 6th March 2021 - 05:54:53