Welcome Guest ( Log In | Register )

> И неформату есть предел.

Рэп/хип-хоп/шансон/поп удаляются. Для них есть свои порталы.

 
Reply to this topicStart new topic
> Of The Wand & The Moon - Tunes For A Twilight Tears For A Lifetime (2018), Neofolk (D4)
post Nov 1 2019, 19:36:12
Post #1

...
**************
Group: Металариец
Posts: 3,361
Releases: 1426
From: МЕЩЁРА
On Forums: 11 years 7 months
Thanks: 40720 time(s)
Russian Federation


(IMG:http://metalarea.org/images/audiocovers/2019_Nov/acov_tid329666_thumb.jpg)

*Artist: Of The Wand & The Moon
*Album: Tunes For A Twilight Tears For A Lifetime
*Year: 2018
*Genre: Neofolk
*Country: Denmark (IMG:http://metalarea.org/forum/style_images/flags/Denmark.png)
*Format: mp3@CBR320kbps
*Size: 197MB

Tracklist:
01. A Tomb Of Seasoned Dye 05:32
02. Hail Hail Hail 02:36
03. Shine Black Algiz 03:29
04. I Crave For You 03:06
05. Immer Vorwärts 03:17
06. Hold My Hand 02:29
07. Lucifer 05:33
08. Sunspot 05:28
09. We Are Dust 03:46
10. Heres An Ode 02:48
11. Lost In Emptiness 03:37
12. Wonderful Wonderful Sun 02:40
******************************
Total playing time: 44:21



Extended info


Technical info
(IMG:http://metalarea.org/images/spectrogram/2019_Nov/7a7625eb9727ae5722a7978d4316b63f.png)
Input File: Of The Wand & The Moon - Tunes For A Twilight Tears For A Lifetime (1).mp3
Channels : 2
Sample Rate : 48000
Precision : 16-bit
Duration : 00:05:32.07 = 15939216 samples ~ 24905 CDDA sectors
File Size : 13.3M
Bit Rate : 320k
Sample Encoding: MPEG audio (layer I, II or III)
Comments :
Title=A Tomb Of Seasoned Dye
Artist=:Of The Wand & The Moon:
Album=Tunes For A Twilight Tears For A Lifetime
Tracknumber=1
Year=2018
Genre=Acoustic/Neofolk



Register


Go to the top of the page
  Insert nick Quick quote
+Quote Post

Reply to this topicStart new topic
1 User(s) are reading this topic (1 Guests and 0 Anonymous Users)
0 Members:

 



- Lo-Fi Version Support form
Copyrights and abuse reports form
Time is now: 20th November 2019 - 10:14:12