Welcome Guest ( Log In | Register )

> Правила / Rules

Тут только для чтения лежат низкобитрейтные (<192kbps) релизы, для которых есть аналоги в высокобитрейтных форумах.

Here goes (and stand in read only mode) low bitrate releases (<192kbps) which were already replaced by high bitrate releases in corresponding forums.

> Nuclear Winter - Night Shift (2019), Modern Melodic Death Metal (D10)
post Nov 2 2019, 19:43:41
Post #1

MDM-Thrash Metal
**************
Group: Металариец
Posts: 9,367
Releases: 792
From: Одесса
On Forums: 12 years 7 months
Thanks: 21350 time(s)
Ukraine


(IMG:http://metalarea.org/images/audiocovers/2019_Nov/acov_tid329740_thumb.jpg)

*Artist: Nuclear Winter
*Album: Night Shift
*Year: 2019
*Genre: Modern Melodic Death Metal
*Country: Zimbabwe (IMG:http://metalarea.org/forum/style_images/flags/Zimbabwe.png)
*Format: mp3@CBR128kbps (IMG:http://metalarea.org/images/bit_low.gif)
*Size: 32MB

Tracklist:
1. The Western Gate 04:08
2. Down Where We Belong 03:54
3. Blueshift 03:47
4. The God Without Shadows 03:46
5. Life Sick Hearts 03:54
6. Years Lent 04:24
7. Fragments Of Grandeur 03:49
8. Third War 03:50
9. The Coming Darkness 03:49
******************************
Total playing time: 35:21




Extended info
Просто всецело удивлен происхождением группы!
В Африке, оказывается, еще и с мелодезом знакомы!?


Technical info
(IMG:http://metalarea.org/images/spectrogram/2019_Nov/ea43660c81d3193a09bbdcc720e8a7e4.png)
Input File: 02_nuclear_winter_down_where_we_belong.mp3
Channels : 2
Sample Rate : 44100
Precision : 16-bit
Duration : 00:03:54.14 = 10325530 samples = 17560.4 CDDA sectors
File Size : 3.82M
Bit Rate : 130k
Sample Encoding: MPEG audio (layer I, II or III)
Comments :
Title=Down Where We Belong
Artist=Nuclear Winter
Album=Night Shift
Tracknumber=2/9
Year=2019



Register


Go to the top of the page
  Insert nick Quick quote
+Quote Post
 
Start new topic
Replies (1 - 1)
post Nov 3 2019, 10:17:33
Post #2

Group: Подсевший
Posts: 40
Releases: 0
From: indark
On Forums: 4 years 2 months
Thanks: 9 time(s)
Unknown


Неплохо, для one-man band из Зимбабве.
Go to the top of the page
  Insert nick Quick quote
+Quote Post

Причина закрытия (Хогги 28-12-2019):
Closed TopicStart new topic
2 User(s) are reading this topic (2 Guests and 0 Anonymous Users)
0 Members:

 



- Lo-Fi Version Support form
Copyrights and abuse reports form
Time is now: 7th April 2020 - 08:21:07