Welcome Guest ( Log In | Register )

> И неформату есть предел.

Рэп/хип-хоп/шансон/поп удаляются. Для них есть свои порталы.

> Striborg - In Deep Contemplation (2019), Coldwave/Electronic (D)
post Nov 3 2019, 15:00:58
Post #1

Четыре Литра
****
Group: Металариец
Posts: 335
Releases: 56
On Forums: 6 years 3 weeks
Thanks: 1076 time(s)
Serbia


(IMG:http://metalarea.org/images/audiocovers/2019_Nov/acov_uid106123_ec6084e6473bcaf75026fc83a449a07a_thumb.jpg)

*Artist: Striborg
*Album: In Deep Contemplation
*Year: 2019
*Genre: Coldwave/Electronic
*Country: Australia (IMG:https://metalarea.org/forum/style_images/flags/Australia.png)
*Format: mp3@CBR320kbps
*Size: 99MB

Tracklist:
1. In Deep Contemplation 06:37
2. The Fear of Haunting You Again 05:23
3. When Nostalgia Tears You Apart 05:12
4. A Nighttime Perplexity 05:24
5. The Introspection of Being 05:07
6. Misapprehension 04:10
7. Reflecting the Sands of Time 04:25
8. Proceeding From a Dark Place 05:42
******************************
Total playing time: 42:00



Technical info
(IMG:https://metalarea.org/images/spectrogram/2019_Nov/7c1a5456a5520b4d9d621132153b1941.png)
Input File: Striborg - In Deep Contemplation - 04 A Nighttime Perplexity.mp3
Channels : 2
Sample Rate : 44100
Precision : 16-bit
Duration : 00:05:24.22 = 14298234 samples = 24316.7 CDDA sectors
File Size : 13.2M
Bit Rate : 325k
Sample Encoding: MPEG audio (layer I, II or III)
Comments :
Title=A Nighttime Perplexity
Artist=Striborg
Album=In Deep Contemplation
Tracknumber=4
Year=2019



Register


This post has been edited by Borderline1991: Nov 4 2019, 14:10:35


Go to the top of the page
  Insert nick Quick quote
+Quote Post
 
Start new topic
Replies (1 - 2)
post Nov 4 2019, 17:27:28
Post #2

Group: Подсевший
Posts: 25
Releases: 0
On Forums: 3 weeks 1 day
Thanks: 9 time(s)
Unknown


Звучит убого и примитивно (в плохом смысле)
Go to the top of the page
  Insert nick Quick quote
+Quote Post
post Nov 5 2019, 09:12:58
Post #3

Правь статус, ####!111
**************
Group: Металариец
Posts: 44,147
Releases: 679
On Forums: 10 years 5 months
Thanks: 35413 time(s)
Russian Federation


Чет Син Нанна после 4 летнего перерыва вновь разошёлся, строчит релизами как из пулемёта (IMG:style_emoticons/default/15.gif)
Go to the top of the page
  Insert nick Quick quote
+Quote Post

Reply to this topicStart new topic
1 User(s) are reading this topic (1 Guests and 0 Anonymous Users)
0 Members:

 



- Lo-Fi Version Support form
Copyrights and abuse reports form
Time is now: 20th November 2019 - 10:31:15