Welcome Guest ( Log In | Register )

> Lair - Lair (2019), Stoner/Doom Metal
post Nov 3 2019, 15:55:18
Post #1

Правь статус, ####!111
**************
Group: Металариец
Posts: 21,953
Releases: 15149
From: Г.Харьков
On Forums: 8 years 3 weeks
Thanks: 274926 time(s)
Unknown


(IMG:http://metalarea.org/images/audiocovers/2019_Nov/acov_tid329795_thumb.jpg)

*Artist: Lair
*Album: Lair
*Year: 2019
*Genre: Stoner/Doom Metal
*Country: United States (IMG:http://metalarea.org/forum/style_images/flags/United%20States.png)
*Format: mp3@CBR320kbps
*Size: 104MB

Tracklist:
1. Guilt 13:03
2. Weakness 09:45
3. Grave 10:33
4. Memory 02:50
5. Punishment 09:05
******************************
Total playing time: 45:16




Extended info
Read Urban - vocals/bass
Anne Marie Dumain - guitar
Malachi Cresswell - guitar
Andrew Griffin - drums


Technical info
(IMG:http://metalarea.org/images/spectrogram/2019_Nov/207cf46ea715a61e7b44ea9052d5bea4.png)
Input File: 03.Grave.mp3
Channels : 2
Sample Rate : 44100
Precision : 16-bit
Duration : 00:10:34.11 = 27964163 samples = 47558.1 CDDA sectors
File Size : 25.4M
Bit Rate : 320k
Sample Encoding: MPEG audio (layer I, II or III)
Comments :
Title=Grave
Artist=Lair
Album=Lair
Tracknumber=3
Year=2019
Genre=Metal



Register


Go to the top of the page
  Insert nick Quick quote
+Quote Post
 
Start new topic
Replies (1 - 3)
post Nov 3 2019, 17:43:17
Post #2

funeral doom fan
Group Icon
Group: S-moderation team
Posts: 4,774
Releases: 2452
From: Ростов-на-Дону
On Forums: 14 years 5 months
Thanks: 46621 time(s)
Russian Federation


Очень рекомендую данный альбом.


Thanks:
Go to the top of the page
  Insert nick Quick quote
+Quote Post
post Nov 3 2019, 17:54:20
Post #3

Правь статус, ####!111
**************
Group: Металариец
Posts: 21,953
Releases: 15149
From: Г.Харьков
On Forums: 8 years 3 weeks
Thanks: 274926 time(s)
Unknown


Cloud Mail 320
Register


Thanks:
Go to the top of the page
  Insert nick Quick quote
+Quote Post
post Nov 9 2019, 15:45:17
Post #4

ME[ta]LLOMAN
**************
Group: Металариец
Posts: 4,966
Releases: 3
From: Avdeyevka
On Forums: 14 years 1 month
Thanks: 1946 time(s)
Honduras


слудге, при чём вес ьма, жыррное и мрррачное...
Go to the top of the page
  Insert nick Quick quote
+Quote Post

Reply to this topicStart new topic
2 User(s) are reading this topic (2 Guests and 0 Anonymous Users)
0 Members:

 



- Lo-Fi Version Support form
Copyrights and abuse reports form
Time is now: 5th June 2020 - 01:31:09