Welcome Guest ( Log In | Register )

> И неформату есть предел.

Рэп/хип-хоп/шансон/поп удаляются. Для них есть свои порталы.

> Nemesea - White Flag (2019), Symphonic/Alternative Rock (D6)
post Nov 3 2019, 16:20:51
Post #1

Каждое ваше "Спасибо" помогает мне понять, что я делаю новости не напрасно.
**************
Group: Металариец
Posts: 2,053
Releases: 1800
From: Одесса
On Forums: 11 years 5 months
Thanks: 15638 time(s)
Ukraine


(IMG:http://metalarea.org/images/audiocovers/2019_Nov/acov_tid329796_thumb.jpg)

*Artist: Nemesea
*Album: White Flag
*Year: 2019
*Genre: Symphonic/Alternative Rock
*Country: Netherlands (IMG:http://metalarea.org/forum/style_images/flags/Netherlands.png)
*Format: mp3@CBR320kbps
*Size: 116MB

Tracklist:
1.The Storm 03:23
2.Kids with Guns 02:42
3.White Flag 03:29
4.Sarah 04:15
5.Don't Tell Me Your Name 03:21
6.Fools Gold 04:25
7.Ratata 03:23
8.Nothing Like Me 02:53
9.Lions 03:12
10.Heavyweight Champion 04:49
11.Rise 03:49
12.Let This Be All 03:41
13.Sayonara 03:08
14.Dance in the Fire 03:07
******************************
Total playing time: 49:37



Extended info
Line - up:
Sonny Onderwater - Bass
Hendrik Jan de Jong - Guitars, Vocals (backing), Keyboards, Programming
Steven Bouma - Drums, Percussion
Mathijs van Til - Keyboards
Sanne Mieloo - Vocals (Grandview Avenue)

Guest/Session:
Micayah Saffar - Vocals (backing)
Janitah Saffar - Vocals (backing)
Larissa Nieman - Vocals (backing)
Sascha Zaal - Vocals (backing)
Jeske Krol - Vocals (backing)
Eva Schipper - Vocals (backing)

(IMG:https://www.metal-archives.com/images/1/7/0/3/17035_photo.jpg?0725)


Technical info
(IMG:http://metalarea.org/images/spectrogram/2019_Nov/6116bea5bc46c553aec1a9761780c0eb.png)
Input File: 03. White Flag.mp3
Channels : 2
Sample Rate : 44100
Precision : 16-bit
Duration : 00:03:29.28 = 9229292 samples = 15696.1 CDDA sectors
File Size : 8.37M
Bit Rate : 320k
Sample Encoding: MPEG audio (layer I, II or III)
Comments :
Title=White Flag
Artist=Nemesea
Album=White Flag
Tracknumber=3
Year=2019
Genre=Symphonic/Alternative Rock



Register


Go to the top of the page
  Insert nick Quick quote
+Quote Post
 
Start new topic
Replies (1 - 2)
post Nov 6 2019, 16:09:59
Post #2

грызущие вместе
***
Group: Завсегдатай
Posts: 290
Releases: 0
From: Moscow/MO
On Forums: 13 years 1 week
Thanks: 104 time(s)
Russian Federation


Когда-то играли вполне себе приличную готегу в духе соотечественников, но, видно, решили, что встать с ними в один ряд всё равно не смогут. Альбом до "The Quiet Resistance" не дотягивает, но на голову выше предыдущего УГшного полноформатника, и хитов хватает (особенно первые три трека и "Rise"). Так что ознакомиться стоит.
Go to the top of the page
  Insert nick Quick quote
+Quote Post
post Nov 6 2019, 16:24:31
Post #3

Волк без яблока
**************
Group: Металариец
Posts: 13,400
Releases: 108
From: Санкт-Петербург
On Forums: 13 years 1 month
Thanks: 15371 time(s)
Russian Federation


Шляпный альт. рок, уныние страшное.
Go to the top of the page
  Insert nick Quick quote
+Quote Post

Reply to this topicStart new topic
1 User(s) are reading this topic (1 Guests and 0 Anonymous Users)
0 Members:

 



- Lo-Fi Version Support form
Copyrights and abuse reports form
Time is now: 20th November 2019 - 09:51:50