Welcome Guest ( Log In | Register )

> Правила / Rules

Тут только для чтения лежат низкобитрейтные (<192kbps) релизы, для которых есть аналоги в высокобитрейтных форумах.

Here goes (and stand in read only mode) low bitrate releases (<192kbps) which were already replaced by high bitrate releases in corresponding forums.

> Chthonic Deity - Reassembled In Pain [demo] (2019), Death Metal
post Nov 3 2019, 17:22:53
Post #1

Семь Литров
*******
Group: Металариец
Posts: 787
Releases: 23
From: Saint-Petersburg
On Forums: 10 years 5 months
Thanks: 1768 time(s)
Russian Federation


(IMG:http://metalarea.org/images/audiocovers/2019_Nov/acov_tid329799_thumb.jpg)

*Artist: Chthonic Deity
*Album: Reassembled In Pain [demo]
*Year: 2019
*Genre: Death Metal
*Country: United States (IMG:http://metalarea.org/forum/style_images/flags/United%20States.png)
*Format: mp3@CBR320kbps
*Size: 30MB

Tracklist:
1. Drained 03:15
2. Disintegrating Organs 03:29
3. Echoes of Death 02:04
4. Blood Ritual 04:09
******************************
Total playing time: 12:57

Extended info
"Reassembled In Pain", the debut demo from CHTHONIC DEITY, contains four songs of energetic and heavy Death Metal/Punk from members of SCOLEX, ASCENDED DEAD and BLOOD INCANTATION. Released on tape by Lunar Tomb Records and 7" vinyl by Carbonized Records & Woodsmoke.


Technical info
(IMG:http://metalarea.org/images/spectrogram/2019_Nov/ede2e7345adc733a53909f288503b11b.png)
Input File: Chthonic Deity - Blood Ritual.mp3
Channels : 2
Sample Rate : 48000
Precision : 16-bit
Duration : 00:04:09.17 = 11960208 samples ~ 18687.8 CDDA sectors
File Size : 9.97M
Bit Rate : 320k
Sample Encoding: MPEG audio (layer I, II or III)
Comments :
Title=Blood Ritual
Artist=Chthonic Deity
Album=Reassembled In Pain
Tracknumber=4
Year=2019



Register


Go to the top of the page
  Insert nick Quick quote
+Quote Post
 
Start new topic
Replies (1 - 1)
post Nov 4 2019, 14:24:10
Post #2

Правь статус, ####!111
**************
Group: Металариец
Posts: 20,664
Releases: 14111
From: Г.Харьков
On Forums: 7 years 9 months
Thanks: 249169 time(s)
Unknown


320 (CD-Rip) 36 mb
Register


Thanks:
(1) wendigo,
Go to the top of the page
  Insert nick Quick quote
+Quote Post

Причина закрытия (Абигор 05-11-2019): Chthonic Deity - Reassembled In Pain [demo] (2019)
Closed TopicStart new topic
2 User(s) are reading this topic (2 Guests and 0 Anonymous Users)
0 Members:

 



- Lo-Fi Version Support form
Copyrights and abuse reports form
Time is now: 24th February 2020 - 03:35:38