Welcome Guest ( Log In | Register )

> 

Здесь релизы с живыми прямыми ссылками на lossless

> Centuries Of Deception - Rehearsal [demo] (1998), Black Metal
post Nov 3 2019, 23:35:26
Post #1

Пять Литров
*****
Group: Металариец
Posts: 490
Releases: 105
On Forums: 9 months 3 weeks
Thanks: 1098 time(s)
Canada


(IMG:http://metalarea.org/images/audiocovers/2019_Nov/acov_tid329817_thumb.png)

*Artist: Centuries Of Deception
*Album: Rehearsal [demo]
*Year: 1998
*Genre: Black Metal
*Country: United States (IMG:http://metalarea.org/forum/style_images/flags/United%20States.png)
*Format: mp3@CBR320kbps
*Size: 47MB

Tracklist:
1. And then there was Chaos 06:52
2. The Bleeding Skies 06:48
3. Farewell to the Gods 06:24
******************************
Total playing time: 20:04

Extended info
Woodland Hills, California

https://www.metal-archives.com/bands/Centuries_of_Deception/4340

Thanks to the original uploader, Atrox of Centuries of Deception.


Technical info
(IMG:http://metalarea.org/images/spectrogram/2019_Nov/c235ddea8d8ddd4d9dd69df619edf146.png)
Input File: Centuries of Deception - Rehearsal (2014) - 01 And then there was Chaos.mp3
Channels : 2
Sample Rate : 44100
Precision : 16-bit
Duration : 00:06:52.63 = 18196807 samples = 30947 CDDA sectors
File Size : 16.6M
Bit Rate : 321k
Sample Encoding: MPEG audio (layer I, II or III)
Comments :
Title=And then there was Chaos
Artist=Centuries of Deception
Album=Rehearsal (2014)
Tracknumber=1
Year=2014



Register


Go to the top of the page
  Insert nick Quick quote
+Quote Post
 
Start new topic
Replies (1 - 1)
post Nov 4 2019, 02:02:39
Post #2

Пять Литров
*****
Group: Металариец
Posts: 490
Releases: 105
On Forums: 9 months 3 weeks
Thanks: 1098 time(s)
Canada


Centuries of Deception (US-CA) 1998 Rehearsal Demo FLAC
Register


Go to the top of the page
  Insert nick Quick quote
+Quote Post

Reply to this topicStart new topic
1 User(s) are reading this topic (1 Guests and 0 Anonymous Users)
0 Members:

 



- Lo-Fi Version Support form
Copyrights and abuse reports form
Time is now: 20th November 2019 - 10:36:01