Welcome Guest ( Log In | Register )

> Правила / Rules

Тут только для чтения лежат низкобитрейтные (<192kbps) релизы, для которых есть аналоги в высокобитрейтных форумах.

Here goes (and stand in read only mode) low bitrate releases (<192kbps) which were already replaced by high bitrate releases in corresponding forums.

> Tyrant Goatgaldrakona - Marquis Of Evil [ep] (2019), Death Metal
post Nov 4 2019, 17:52:36
Post #1

Пять Литров
*****
Group: Металариец
Posts: 463
Releases: 1
On Forums: 6 years 7 months
Thanks: 260 time(s)
Spain


(IMG:https://metalarea.org/images/audiocovers/2019_Nov/acov_tid329847_thumb.jpg)

*Artist: Tyrant Goatgaldrakona
*Album: Marquis Of Evil [ep]
*Year: 2019
*Genre: Death Metal
*Country: Hungary (IMG:https://metalarea.org/forum/style_images/flags/Hungary.png)
*Format: mp3@CBR320kbps
*Size: 21MB

Tracklist:
01. Conspiracy with Marquis 04:40
02. The Seventh Throne 05:09
******************************
Total playing time: 9:49

Extended info
7''EP vinyl limited to 350 copies.


Technical info
(IMG:https://metalarea.org/images/spectrogram/2019_Nov/4f75204e1720702bd49118bd23909030.png)
Input File: 01 - Conspiracy With Marquis.mp3
Channels : 2
Sample Rate : 44100
Precision : 16-bit
Duration : 00:04:48.78 = 12735022 samples = 21658.2 CDDA sectors
File Size : 11.6M
Bit Rate : 320k
Sample Encoding: MPEG audio (layer I, II or III)
Comments :
Title=Conspiracy With Marquis
Artist=Tyrant Goatgaldrakona
Album=Marquis of Evil
Tracknumber=1
Year=2019
Genre=Death Metal



Register


Thanks:
(2) Boozer, Rosen,
Go to the top of the page
  Insert nick Quick quote
+Quote Post
 
Start new topic
Replies (1 - 4)
post Nov 19 2019, 22:41:44
Post #2

Два Литра
**
Group: Завсегдатай
Posts: 115
Releases: 0
On Forums: 10 months 4 weeks
Thanks: 3 time(s)
Russian Federation


The link is dead: could you add a new one?
Go to the top of the page
  Insert nick Quick quote
+Quote Post
post Nov 20 2019, 04:53:28
Post #3

Самый Тихий Час
**************
Group: Металариец
Posts: 5,892
Releases: 2
On Forums: 10 years 4 months
Thanks: 2695 time(s)
Unknown


перезалейте, плиз
Go to the top of the page
  Insert nick Quick quote
+Quote Post
post Nov 22 2019, 13:06:51
Post #4

Два Литра
**
Group: Завсегдатай
Posts: 115
Releases: 0
On Forums: 10 months 4 weeks
Thanks: 3 time(s)
Russian Federation


Does anybody have a new link?)
Go to the top of the page
  Insert nick Quick quote
+Quote Post
post Nov 22 2019, 13:13:01
Post #5

Правь статус, ####!111
**************
Group: Металариец
Posts: 45,777
Releases: 705
On Forums: 10 years 10 months
Thanks: 37784 time(s)
Russian Federation


Качество похужее но чем богаты:

Register


Register


Register


Register


Thanks:
(1) Djarovich,
Go to the top of the page
  Insert nick Quick quote
+Quote Post

Причина закрытия (Хогги 19-12-2019):
Closed TopicStart new topic
2 User(s) are reading this topic (2 Guests and 0 Anonymous Users)
0 Members:

 



- Lo-Fi Version Support form
Copyrights and abuse reports form
Time is now: 7th April 2020 - 08:37:51