Welcome Guest ( Log In | Register )

> Wounds Of Old - Visions Of The Blind Eye (2019), Death/Doom Metal
post Nov 5 2019, 20:13:25
Post #1

Правь статус, ####!111
**************
Group: Металариец
Posts: 21,953
Releases: 15149
From: Г.Харьков
On Forums: 8 years 3 weeks
Thanks: 274915 time(s)
Unknown


(IMG:http://metalarea.org/images/audiocovers/2019_Nov/acov_tid329899_thumb.jpg)

*Artist: Wounds Of Old
*Album: Visions Of The Blind Eye
*Year: 2019
*Genre: Death/Doom Metal
*Country: International (IMG:http://metalarea.org/forum/style_images/flags/International.png)
*Format: mp3@CBR320kbps
*Size: 130MB

Tracklist:
1. What Might Have Been 05:10
2. Visions of the Blind Eye 05:25
3. The Shadows Know 08:09
4. Passage to the Open Square 04:53
5. Monument 06:40
6. For Wisdom & Eternity 05:13
7. Only Speak of Death 05:53
8. The Learning 06:08
9. Mentioned in Whispers 06:27
******************************
Total playing time: 53:58




Extended info
Belgium / Sweden / France
Sven Drums
Kris Guitars, Bass
Friso van Daalen Keyboards
See also: Stàilinn Drakk, ex-Dark Sun Rising, Mindful
SvN Vocals
See also: Dodengod, Thronum Vrondor, ex-Anesthesy, ex-Fleshmould, ex-Impedigon (live), ex-Ascend-ency, ex-Zymotic



Technical info
(IMG:http://metalarea.org/images/spectrogram/2019_Nov/4daadb209c3197fb29b948225e73daf9.png)
Input File: 03 The Shadows Know.mp3
Channels : 2
Sample Rate : 44100
Precision : 16-bit
Duration : 00:00:00.49 = 21565 samples = 36.6752 CDDA sectors
File Size : 20.3M
Bit Rate : 333M
Sample Encoding: MPEG audio (layer I, II or III)
Comments :
Title=The Shadows Know
Artist=Wounds of Old
Album=Visions of the Blind Eye
Tracknumber=3/9
Year=2019
Genre=Metal
Discnumber=1/1



Register


Go to the top of the page
  Insert nick Quick quote
+Quote Post
 
Start new topic
Replies (1 - 7)
post Nov 5 2019, 21:23:30
Post #2

Group: Подсевший
Posts: 44
Releases: 1
On Forums: 4 years 10 months
Thanks: 54 time(s)
Unknown


Так себе, на любителя...


Thanks:
(1) Brann,
Go to the top of the page
  Insert nick Quick quote
+Quote Post
post Nov 5 2019, 21:31:10
Post #3

Правь статус, ####!111
**************
Group: Металариец
Posts: 21,953
Releases: 15149
From: Г.Харьков
On Forums: 8 years 3 weeks
Thanks: 274915 time(s)
Unknown


Cloud Mail 320
Register


Go to the top of the page
  Insert nick Quick quote
+Quote Post
post Nov 8 2019, 21:46:59
Post #4

Ёлд ХеллоВяйне
Group Icon
Group: V.I.P
Posts: 29,773
Releases: 137
From: Питер
On Forums: 13 years 7 months
Thanks: 17668 time(s)
Russian Federation


Гитарист хорош, зараза, но в целом музыка не орошает.
Go to the top of the page
  Insert nick Quick quote
+Quote Post
post Nov 9 2019, 08:57:55
Post #5

funeral doom fan
Group Icon
Group: S-moderation team
Posts: 4,774
Releases: 2452
From: Ростов-на-Дону
On Forums: 14 years 5 months
Thanks: 46621 time(s)
Russian Federation


Лучше чем недавний Novembers Doom.


Thanks:
(2) KVRT, russ777,
Go to the top of the page
  Insert nick Quick quote
+Quote Post
post Nov 16 2019, 07:59:32
Post #6

Восемь Литров
********
Group: Металариец
Posts: 814
Releases: 0
From: South Of Heaven
On Forums: 12 years 10 months
Thanks: 371 time(s)
Ukraine


Отличнейший Death/Doom, кайфовый!!!
Релизёру вери сенкс за работу! (IMG:style_emoticons/default/9.gif) (IMG:style_emoticons/default/9.gif)
Go to the top of the page
  Insert nick Quick quote
+Quote Post
post Nov 16 2019, 09:57:29
Post #7

Ёлд ХеллоВяйне
Group Icon
Group: V.I.P
Posts: 29,773
Releases: 137
From: Питер
On Forums: 13 years 7 months
Thanks: 17668 time(s)
Russian Federation


QUOTE(Funeral Frost @ 9th November 2019 - 10:57:55) *
Лучше чем недавний Novembers Doom.


Такой себе комплимент.


Thanks:
Go to the top of the page
  Insert nick Quick quote
+Quote Post
post Nov 27 2019, 15:47:16
Post #8

Welder - master Wunderkerzen
***********
Group: Металариец
Posts: 1,556
Releases: 47
On Forums: 12 years 1 month
Thanks: 3598 time(s)
Russian Federation


The Learning вообще Confessor чистой воды.
Go to the top of the page
  Insert nick Quick quote
+Quote Post

Reply to this topicStart new topic
2 User(s) are reading this topic (2 Guests and 0 Anonymous Users)
0 Members:

 



- Lo-Fi Version Support form
Copyrights and abuse reports form
Time is now: 5th June 2020 - 00:41:16