Welcome Guest ( Log In | Register )

> Releases Upload / Добавление релизов

Добавить релиз тут / Click here to add release
Рекомендованные обменники / Recommended file shares

> Sacrificia - Репродукция (2019), Symphonic/Atmospheric Black Metal
post Nov 6 2019, 07:54:23
Post #1

Литр
*
Group: Подсевший
Posts: 70
Releases: 51
On Forums: 5 years 7 months
Thanks: 855 time(s)
Unknown


(IMG:http://metalarea.org/images/audiocovers/2019_Nov/acov_tid329914_thumb.jpg)

*Artist: Sacrificia
*Album: Репродукция
*Year: 2019
*Genre: Symphonic/Atmospheric Black Metal
*Country: Russian Federation (IMG:http://metalarea.org/forum/style_images/flags/Russian%20Federation.png)
*Format: mp3@CBR320kbps
*Size: 151MB

Tracklist:
1. Время жертвоприношений 08:35
2. Дознание 09:02
3. Педофилия 08:05
4. Испытание водой и огнём 11:41
5. Ночной кошмар 11:30
6. Детоубийство 07:16
7. Кровавый Ритуал 09:39
******************************
Total playing time: 1:05:48



VK

Technical info
(IMG:http://metalarea.org/images/spectrogram/2019_Nov/1b21fd20edf1ae5f6ce31a280d83e392.png)
Input File: 02 Дознание.mp3
Channels : 2
Sample Rate : 44100
Precision : 16-bit
Duration : 00:09:02.25 = 23913357 samples = 40669 CDDA sectors
File Size : 21.8M
Bit Rate : 321k
Sample Encoding: MPEG audio (layer I, II or III)
Comments :
Title=Дознание
Artist=Sacrificia
Album=Репродукция
Tracknumber=2
Year=2019



Register


Go to the top of the page
  Insert nick Quick quote
+Quote Post
 
Start new topic
Replies (1 - 7)
post Nov 6 2019, 16:14:22
Post #2

MDM-Thrash Metal
**************
Group: Металариец
Posts: 9,072
Releases: 740
From: Одесса
On Forums: 12 years 3 months
Thanks: 19787 time(s)
Ukraine


Еще одни многостоночники-трудяги. (IMG:style_emoticons/default/5.gif)
Go to the top of the page
  Insert nick Quick quote
+Quote Post
post Nov 6 2019, 16:18:46
Post #3

Правь статус, ####!111
**************
Group: Металариец
Posts: 44,055
Releases: 674
On Forums: 10 years 5 months
Thanks: 35343 time(s)
Russian Federation


ЦИТАТА(Scars @ Nov 6 2019, 09:54:23) *
Время жертвоприношений
Дознание
Педофилия
Испытание водой и огнём
Ночной кошмар
Детоубийство
Кровавый Ритуал


Самый гуманный суд в мире (IMG:style_emoticons/default/25.gif)
Go to the top of the page
  Insert nick Quick quote
+Quote Post
post Nov 7 2019, 13:59:15
Post #4

Правь статус, ####!111
**************
Group: Металариец
Posts: 2,718
Releases: 8
From: Dnipro
On Forums: 11 years 4 months
Thanks: 852 time(s)
Ukraine


ЦИТАТА(Andrew @ Nov 6 2019, 17:14:22) *
Еще одни многостоночники-трудяги. (IMG:style_emoticons/default/5.gif)

Он там один, хотя нужно признать у него есть неплохие альбомы.
Go to the top of the page
  Insert nick Quick quote
+Quote Post
post Nov 8 2019, 14:53:37
Post #5

my church is black
********
Group: Металариец
Posts: 855
Releases: 1
On Forums: 2 years 5 months
Thanks: 491 time(s)
Cape Verde


ЦИТАТА(isvili @ 7th November 2019 - 17:59:15) *
хотя нужно признать у него есть неплохие альбомы

Есть, потому и вопрос - а зачем издавать подобное? Лучше бы выпускал реже, но качественней. ИМХО
Go to the top of the page
  Insert nick Quick quote
+Quote Post
post Nov 8 2019, 21:06:09
Post #6

Ёлд ХеллоВяйне
Group Icon
Group: V.I.P
Posts: 28,316
Releases: 132
From: Питер
On Forums: 13 years 3 weeks
Thanks: 16089 time(s)
Russian Federation


QUOTE(Andrew @ 6th November 2019 - 18:14:22) *
многостоночники


Много стонут?


Thanks:
Go to the top of the page
  Insert nick Quick quote
+Quote Post
post Nov 9 2019, 17:10:55
Post #7

Правь статус, ####!111
**************
Group: Металариец
Posts: 2,718
Releases: 8
From: Dnipro
On Forums: 11 years 4 months
Thanks: 852 time(s)
Ukraine


ЦИТАТА(Krosis @ Nov 8 2019, 15:53:37) *
Есть, потому и вопрос - а зачем издавать подобное? Лучше бы выпускал реже, но качественней. ИМХО

Зачем? Так ответ на поверхности, у него больше половины альбомов это чистый эмбиент, они не в счет, взять к примеру одни из последних альбомов Mortem (Via Ad Libertatem), Vita (Via Ad Mortem), Nostalgia они все эмбиентальные. Отсюда следует что не такой уж он и многостаночник.
Go to the top of the page
  Insert nick Quick quote
+Quote Post
post Nov 9 2019, 21:39:15
Post #8

my church is black
********
Group: Металариец
Posts: 855
Releases: 1
On Forums: 2 years 5 months
Thanks: 491 time(s)
Cape Verde


ЦИТАТА(isvili @ 9th November 2019 - 21:10:55) *
Зачем? Так ответ на поверхности, у него больше половины альбомов это чистый эмбиент

Дак речь не только о Sacrificia, у него ж ещё с пару десятков групп в послужном списке
Go to the top of the page
  Insert nick Quick quote
+Quote Post

Reply to this topicStart new topic
2 User(s) are reading this topic (2 Guests and 0 Anonymous Users)
0 Members:

 



- Lo-Fi Version Support form
Copyrights and abuse reports form
Time is now: 18th November 2019 - 04:19:03