Welcome Guest ( Log In | Register )

> Releases Upload / Добавление релизов

Добавить релиз тут / Click here to add release
Рекомендованные обменники / Recommended file shares

> Descent Into Maelstrom - Iconoclasm (2019), Melodic Death Metal
post Nov 6 2019, 18:52:41
Post #1

Правь статус, ####!111
**************
Group: Металариец
Posts: 19,524
Releases: 13212
From: Г.Харьков
On Forums: 7 years 6 months
Thanks: 227723 time(s)
Unknown


(IMG:http://metalarea.org/images/audiocovers/2019_Nov/acov_tid329933_thumb.jpg)

*Artist: Descent Into Maelstrom
*Album: Iconoclasm
*Year: 2019
*Genre: Melodic Death Metal
*Country: Italy (IMG:http://metalarea.org/forum/style_images/flags/Italy.png)
*Format: mp3@CBR320kbps
*Size: 93MB

Tracklist:
1. The Misanthrope 06:53
2. Saturn 04:12
3. Red Gaze 04:06
4. The Grim 05:44
5. Forgotten Wisdom 06:14
6. Monolith 04:03
7. Shade of the Night 04:32
8. The Portal of the Elsewhere 04:27
******************************
Total playing time: 40:11




Extended info
Andrea Bignardi Everything (2016-2018), Vocals, Guitars (2018-present)
See also: ex-Krygar
Mik Gawen Bass (2018-present)
See also: ex-Agony Face, ex-Blood Thirsty Demons, ex-Tethra
Michele Castelnuovo Drums (2018-present)
See also: Infected, ex-Krygar
Peter Buzzi Guitars (2018-present)
Mattia panunzio Guitars (2018-present)


Technical info
(IMG:http://metalarea.org/images/spectrogram/2019_Nov/a223f4a1ed5da9751278b72899f8c8bc.png)
Input File: 03 - Red Gaze.mp3
Channels : 2
Sample Rate : 44100
Precision : 16-bit
Duration : 00:04:06.37 = 10865093 samples = 18478 CDDA sectors
File Size : 10.1M
Bit Rate : 328k
Sample Encoding: MPEG audio (layer I, II or III)
Comments :
Title=Red Gaze
Artist=Descent into Maelström
Album=Iconoclasm
Tracknumber=3
Year=2019



Register


Go to the top of the page
  Insert nick Quick quote
+Quote Post
 
Start new topic
Replies (1 - 7)
post Nov 7 2019, 01:30:13
Post #2

Правь статус, ####!111
**************
Group: Металариец
Posts: 19,524
Releases: 13212
From: Г.Харьков
On Forums: 7 years 6 months
Thanks: 227723 time(s)
Unknown


Cloud Mail 320
Register


Thanks:
(1) cenzored,
Go to the top of the page
  Insert nick Quick quote
+Quote Post
post Nov 7 2019, 22:34:25
Post #3

MDM-Thrash Metal
**************
Group: Металариец
Posts: 9,072
Releases: 740
From: Одесса
On Forums: 12 years 3 months
Thanks: 19787 time(s)
Ukraine


Progressive Melodic Death Metal
Go to the top of the page
  Insert nick Quick quote
+Quote Post
post Nov 8 2019, 21:09:00
Post #4

Ёлд ХеллоВяйне
Group Icon
Group: V.I.P
Posts: 28,316
Releases: 132
From: Питер
On Forums: 13 years 3 weeks
Thanks: 16089 time(s)
Russian Federation


Несъедобно.
Go to the top of the page
  Insert nick Quick quote
+Quote Post
post Nov 9 2019, 14:06:19
Post #5

Два Литра
**
Group: Завсегдатай
Posts: 164
Releases: 0
From: Лыткарино
On Forums: 6 months 1 week
Thanks: 38 time(s)
Russian Federation


Очень слабо мелодически. Во-первых, беззубо, во-вторых, мелодии либо кривые, либо не кривые, но сильно избитые и примитивные)
Go to the top of the page
  Insert nick Quick quote
+Quote Post
post Nov 13 2019, 17:39:53
Post #6

Пять Литров
*****
Group: Металариец
Posts: 474
Releases: 0
From: Град Московский
On Forums: 11 years 10 months
Thanks: 118 time(s)
Russian Federation


Отличный альбом,хорошие мелодии...
Go to the top of the page
  Insert nick Quick quote
+Quote Post
post Nov 13 2019, 17:58:51
Post #7

на аватаре не я
**************
Group: Металариец
Posts: 4,825
Releases: 7
From: "Самопровозглашенная ДНР" (с)
On Forums: 10 years 4 months
Thanks: 2314 time(s)
Russian Federation


Как минимум интересно. Приятное разнообразие на фоне засилья джента и шаблонного МДМ.
Go to the top of the page
  Insert nick Quick quote
+Quote Post
post Nov 16 2019, 17:05:25
Post #8

Перевозчик
**************
Group: Металариец
Posts: 3,081
Releases: 0
On Forums: 11 years 4 months
Thanks: 672 time(s)
Russian Federation


ЦИТАТА(Shadowman @ Nov 13 2019, 19:58:51) *
Как минимум интересно. Приятное разнообразие на фоне засилья джента и шаблонного МДМ.


Я, конечно, не специалист, но беглого прослушивания на бэндкемпе мне оказалось достаточно, чтобы понять, что релиз целиком и полностью шаблонный, вторичный, заклишированный и не представляющий никакого интереса.




Thanks:
(1) Metalass,
Go to the top of the page
  Insert nick Quick quote
+Quote Post

Reply to this topicStart new topic
2 User(s) are reading this topic (2 Guests and 0 Anonymous Users)
0 Members:

 



- Lo-Fi Version Support form
Copyrights and abuse reports form
Time is now: 18th November 2019 - 04:04:27