Welcome Guest ( Log In | Register )

> И неформату есть предел.

Рэп/хип-хоп/шансон/поп удаляются. Для них есть свои порталы.

> Hashshashin - Badakhshan (2019), Progressive/Atmospheric/Oriental Rock
post Nov 7 2019, 09:32:17
Post #1

Правь статус, ####!111
**************
Group: Металариец
Posts: 44,081
Releases: 674
On Forums: 10 years 5 months
Thanks: 35358 time(s)
Russian Federation


(IMG:http://metalarea.org/images/audiocovers/2019_Nov/acov_tid329950_thumb.jpg)

*Artist: Hashshashin
*Album: Badakhshan
*Year: 2019
*Genre: Progressive/Atmospheric/Oriental Rock
*Country: Australia (IMG:http://metalarea.org/forum/style_images/flags/Australia.png)
*Format: mp3@CBR320kbps
*Size: 121MB

Tracklist:
1. Qom 01:30
2. Crossing The Panj 07:30
3. Death In Langar 04:36
4. Shrines Of The Wakhan 08:42
5. Sarhadd 07:09
6. The Taklamakan 12:27
7. Then He Hid Himself In The Refining Fire 10:14
******************************
Total playing time: 52:08



Technical info
(IMG:http://metalarea.org/images/spectrogram/2019_Nov/4159f613ed28e9678504c86072bb84bf.png)
Input File: 01. Hashshashin - Qom.mp3
Channels : 2
Sample Rate : 44100
Precision : 16-bit
Duration : 00:01:31.07 = 4016055 samples = 6830.03 CDDA sectors
File Size : 3.91M
Bit Rate : 343k
Sample Encoding: MPEG audio (layer I, II or III)
Comments :
Title=Qom
Artist=Hashshashin
Album=Badakhshan
Tracknumber=1/7
Year=2019-09-27
Genre=Rock
Discnumber=0/0



Register


This post has been edited by Borderline1991: Nov 7 2019, 20:19:43


Go to the top of the page
  Insert nick Quick quote
+Quote Post
 
Start new topic
Replies (1 - 3)
post Nov 7 2019, 15:26:46
Post #2

Правь статус, ####!111
**************
Group: Металариец
Posts: 44,081
Releases: 674
On Forums: 10 years 5 months
Thanks: 35358 time(s)
Russian Federation


Нетривиальный камень.
Go to the top of the page
  Insert nick Quick quote
+Quote Post
post Nov 7 2019, 16:52:51
Post #3

Три Литра
***
Group: Завсегдатай
Posts: 247
Releases: 0
From: Россия
On Forums: 7 years 9 months
Thanks: 82 time(s)
Russian Federation


Неформат

“(Hashshashin’s) music is powerful and muscular and ranges from full on psychedelic rock-outs to fully hypnotising drone.

Информация
A ragged and cathartic mix of Middle Eastern psychedelia, progressive rock and transcendental drone.

Go to the top of the page
  Insert nick Quick quote
+Quote Post
post Nov 7 2019, 18:01:09
Post #4

21st Century Schizoid Man
**************
Group: Металариец
Posts: 6,097
Releases: 76
From: Moscow
On Forums: 11 years 6 months
Thanks: 4810 time(s)
Russian Federation


Прошу восстановить в количестве релизов vosmidesijatye число этого самого. Неформат, конечно же.
Go to the top of the page
  Insert nick Quick quote
+Quote Post

Reply to this topicStart new topic
2 User(s) are reading this topic (2 Guests and 0 Anonymous Users)
0 Members:

 



- Lo-Fi Version Support form
Copyrights and abuse reports form
Time is now: 18th November 2019 - 15:24:59