Welcome Guest ( Log In | Register )

> 

Здесь релизы с живыми прямыми ссылками на lossless

> Nightland - Umbra Astra Luna (2019), Symphonic Death Metal
post Nov 7 2019, 13:22:43
Post #1

Serial Uploader
Group Icon
Group: V.I.P
Posts: 36,461
Releases: 34651
From: Lithuania
On Forums: 11 years 5 months
Thanks: 404778 time(s)
Lithuania


(IMG:https://metalarea.org/images/audiocovers/2019_Nov/acov_tid329982_thumb.jpg)

*Artist: Nightland
*Album: Umbra Astra Luna
*Year: 2019
*Genre: Symphonic Death Metal
*Country: Italy (IMG:https://metalarea.org/forum/style_images/flags/Italy.png)
*Format: mp3@CBR320kbps
*Size: 106MB

Tracklist:
01. Postridie Nonas Iunias
02. Amongst Blackening Skies
03. In Shadow and Light
04. One Million Suns
05. Lovers in a Colorless Summer
06. Unto the Endlessness
07. Eternally Thine
08. Of Moon and Stars
******************************
Total playing time: 46:02

(IMG:https://metalarea.org/images/myspace.png)



(IMG:https://metalarea.org/images/youtube.png)

Technical info
(IMG:https://metalarea.org/images/spectrogram/2019_Nov/b61570dce3a5ab688913494d9f4ac513.png)
Input File: 02 Amongst Blackening Skies.mp3
Channels : 2
Sample Rate : 44100
Precision : 16-bit
Duration : 00:06:16.11 = 16586231 samples = 28207.9 CDDA sectors
File Size : 15.9M
Bit Rate : 339k
Sample Encoding: MPEG audio (layer I, II or III)
Comments :
Title=Amongst Blackening Skies
Artist=Nightland
Album=Umbra Astra Luna
Tracknumber=2/8
Year=2019
Genre=Metal
Discnumber=1/1



Register

Register


Go to the top of the page
  Insert nick Quick quote
+Quote Post
 
Start new topic
Replies (1 - 2)
post Nov 8 2019, 11:47:18
Post #2

\m/
Group Icon
Group: S-moderation team
Posts: 7,703
Releases: 19
From: Петропавловск-Камчатский
On Forums: 10 years 5 months
Thanks: 7282 time(s)
Russian Federation


Added links by Andrew
Go to the top of the page
  Insert nick Quick quote
+Quote Post
post Nov 8 2019, 14:09:14
Post #3

Два Литра
**
Group: Завсегдатай
Posts: 121
Releases: 2
On Forums: 9 years 4 months
Thanks: 136 time(s)
Russian Federation


FLAC:
Register


Thanks:
(1) Olethros,
Go to the top of the page
  Insert nick Quick quote
+Quote Post

Reply to this topicStart new topic
1 User(s) are reading this topic (1 Guests and 0 Anonymous Users)
0 Members:

 



- Lo-Fi Version Support form
Copyrights and abuse reports form
Time is now: 18th November 2019 - 04:35:38