Welcome Guest ( Log In | Register )

> И неформату есть предел.

Рэп/хип-хоп/шансон/поп удаляются. Для них есть свои порталы.

> Agnostic Front - Get Loud! (2019), Hardcore (D21)
post Nov 7 2019, 13:45:28
Post #1

Serial Uploader
Group Icon
Group: V.I.P
Posts: 36,461
Releases: 34651
From: Lithuania
On Forums: 11 years 5 months
Thanks: 404805 time(s)
Lithuania


(IMG:https://metalarea.org/images/audiocovers/2019_Nov/acov_tid329984_thumb.jpg)

*Artist: Agnostic Front
*Album: Get Loud!
*Year: 2019
*Genre: Hardcore
*Country: United States (IMG:https://metalarea.org/forum/style_images/flags/United%20States.png)
*Format: mp3@CBR320kbps
*Size: 69MB

Tracklist:
01. Spray Painted Walls 02:45
02. Anti-Social 01:06
03. Get Loud! 02:22
04. Conquer and Divide 02:18
05. I Remember 03:11
06. Dead Silence 02:23
07. Af Stomp 01:29
08. Urban Decay 01:57
09. Snitches Get Stitches 01:47
10. Isolated 01:51
11. In My Blood 02:32
12. Attention 01:49
13. Pull the Trigger 02:00
14. Devastated 02:38
******************************
Total playing time: 30:08


(IMG:https://metalarea.org/images/youtube.png)

Technical info
(IMG:https://metalarea.org/images/spectrogram/2019_Nov/e0c66b353303f76cba66e476e43ac672.png)
Input File: 02. Anti-Social.mp3
Channels : 2
Sample Rate : 44100
Precision : 16-bit
Duration : 00:01:06.80 = 2945792 samples = 5009.85 CDDA sectors
File Size : 2.67M
Bit Rate : 320k
Sample Encoding: MPEG audio (layer I, II or III)
Comments :
Title=Anti-Social
Artist=Agnostic Front
Album=Get Loud!
Tracknumber=02/14
Year=2019
Discnumber=1/1



Register


Go to the top of the page
  Insert nick Quick quote
+Quote Post
 
Start new topic
Replies (1 - 8)
post Nov 8 2019, 02:58:29
Post #2

Ледоруб
**************
Group: Металариец
Posts: 23,375
Releases: 0
From: Санкт-Петербург
On Forums: 10 years 2 months
Thanks: 7809 time(s)
Russian Federation


Не нужны.
Go to the top of the page
  Insert nick Quick quote
+Quote Post
post Nov 8 2019, 05:14:17
Post #3

i listen to black metal
**************
Group: Металариец
Posts: 2,437
Releases: 129
From: Москва-Лианозово
On Forums: 12 years 10 months
Thanks: 2074 time(s)
Russian Federation


всегда были заводилами!!!!
Go to the top of the page
  Insert nick Quick quote
+Quote Post
post Nov 8 2019, 07:38:55
Post #4

Пять Литров
*****
Group: Металариец
Posts: 474
Releases: 0
From: Град Московский
On Forums: 11 years 10 months
Thanks: 118 time(s)
Russian Federation


Хорошая банда,альбом на своём уровне,не меняются!)
Go to the top of the page
  Insert nick Quick quote
+Quote Post
post Nov 8 2019, 08:13:09
Post #5

Маньяк
**********
Group: Металариец
Posts: 1,217
Releases: 1
On Forums: 5 years 2 weeks
Thanks: 428 time(s)
Tajikistan


Good!
Go to the top of the page
  Insert nick Quick quote
+Quote Post
post Nov 8 2019, 08:15:11
Post #6

Правь статус, ####!111
**************
Group: Металариец
Posts: 44,065
Releases: 674
On Forums: 10 years 5 months
Thanks: 35351 time(s)
Russian Federation


ЦИТАТА(6666666 @ Nov 8 2019, 04:58:29) *
Не нужны.


Дэткоры и металкоры.

А хардкор нужен.


Thanks:
(1) sta1081,
Go to the top of the page
  Insert nick Quick quote
+Quote Post
post Nov 8 2019, 08:23:31
Post #7

Маньяк
**********
Group: Металариец
Posts: 1,217
Releases: 1
On Forums: 5 years 2 weeks
Thanks: 428 time(s)
Tajikistan


ЦИТАТА(vosmidesijatye @ Nov 8 2019, 08:15:11) *
Дэткоры и металкоры.

А хардкор нужен.


да какой тут хардкор? они уже давно кроссовят и предателями в среде хардкориков считаются
Go to the top of the page
  Insert nick Quick quote
+Quote Post
post Nov 8 2019, 20:53:08
Post #8

Ёлд ХеллоВяйне
Group Icon
Group: V.I.P
Posts: 28,316
Releases: 132
From: Питер
On Forums: 13 years 3 weeks
Thanks: 16090 time(s)
Russian Federation


На Брутале летом прокачали только в путь. Беру!
Go to the top of the page
  Insert nick Quick quote
+Quote Post
post Nov 11 2019, 13:33:12
Post #9

T.I.N.D.
**************
Group: Металариец
Posts: 2,444
Releases: 62
On Forums: 10 years 6 months
Thanks: 1647 time(s)
Australia


QUOTE(necroscum @ 7th November 2019 - 16:45:28) *
02. Anti-Social 01:06

(IMG:style_emoticons/default/20.gif)


Thanks:
(1) Joey_73,
Go to the top of the page
  Insert nick Quick quote
+Quote Post

Reply to this topicStart new topic
2 User(s) are reading this topic (2 Guests and 0 Anonymous Users)
0 Members:

 



- Lo-Fi Version Support form
Copyrights and abuse reports form
Time is now: 18th November 2019 - 10:10:43