Welcome Guest ( Log In | Register )

> Releases Upload / Добавление релизов

Добавить релиз тут / Click here to add release
Рекомендованные обменники / Recommended file shares

> Dimhav - The Boreal Flame (2019), Heavy/Speed Metal
post Nov 7 2019, 13:59:56
Post #1

Serial Uploader
Group Icon
Group: V.I.P
Posts: 36,461
Releases: 34651
From: Lithuania
On Forums: 11 years 5 months
Thanks: 404775 time(s)
Lithuania


(IMG:https://metalarea.org/images/audiocovers/2019_Nov/acov_tid329985_thumb.jpg)

*Artist: Dimhav
*Album: The Boreal Flame
*Year: 2019
*Genre: Heavy/Speed Metal
*Country: Sweden (IMG:https://metalarea.org/forum/style_images/flags/Sweden.png)
*Format: mp3@CBR320kbps
*Size: 127MB

Tracklist:
01. Boreal Ascent
02. Realms of a Vagrant King
03. The Flame Transcendent
04. Chthonic Elegy
05. The Aerial
06. From Southern Shores
07. Star and Crescent
******************************
Total playing time: 55:16



Technical info
(IMG:https://metalarea.org/images/spectrogram/2019_Nov/1397d0c5a0bc3bed27e5e272720be1ad.png)
Input File: 02 Realms of a Vagrant King.mp3
Channels : 2
Sample Rate : 44100
Precision : 16-bit
Duration : 00:09:40.84 = 25614956 samples = 43562.9 CDDA sectors
File Size : 23.6M
Bit Rate : 325k
Sample Encoding: MPEG audio (layer I, II or III)
Comments :
Title=Realms of a Vagrant King
Artist=Dimhav
Album=The Boreal Flame
Tracknumber=2/7
Year=2019
Genre=Metal
Discnumber=1/1



Register


Go to the top of the page
  Insert nick Quick quote
+Quote Post
 
Start new topic
Replies (1 - 4)
post Nov 8 2019, 20:52:32
Post #2

Ёлд ХеллоВяйне
Group Icon
Group: V.I.P
Posts: 28,316
Releases: 132
From: Питер
On Forums: 13 years 3 weeks
Thanks: 16089 time(s)
Russian Federation


Go to the top of the page
  Insert nick Quick quote
+Quote Post
post Nov 9 2019, 21:55:33
Post #3

MDM-Thrash Metal
**************
Group: Металариец
Posts: 9,072
Releases: 740
From: Одесса
On Forums: 12 years 3 months
Thanks: 19787 time(s)
Ukraine




ЦИТАТА(necroscum @ Nov 7 2019, 16:59:56) *
Speed Metal

(IMG:style_emoticons/default/hmm.gif)
Go to the top of the page
  Insert nick Quick quote
+Quote Post
post Nov 11 2019, 21:02:49
Post #4

Волк без яблока
**************
Group: Металариец
Posts: 13,396
Releases: 108
From: Санкт-Петербург
On Forums: 13 years 1 month
Thanks: 15365 time(s)
Russian Federation


Очень разочаровали меня шведы, зачем было приглашать Хаймана, если ты играешь махровый прог с крайне скудными вокальными партиями? Хорошего тут только то, что Хайман показал свою 100% способность выдавать самые безумные ноты, как и во времена Lost Horizon. А значит, ещё не поздно...
Go to the top of the page
  Insert nick Quick quote
+Quote Post
post Nov 12 2019, 08:28:44
Post #5


********
Group: Металариец
Posts: 837
Releases: 83
From: Москва/Моск. обл
On Forums: 12 years 1 month
Thanks: 2516 time(s)
Russian Federation


Очень классный прог-павер, напоминает смесь Symphony X и DGM. Некоторая нехарактерная в целом для павера аляповатость присутствует, в этом смысле отдаленно похоже на Pathfinder. В целом качественный и интересный альбом, в настоящую проговую абстрактность только отдельные нечастые клавишные соло уходят, что совсем не мешает прослушиванию. Жаль, что указанный в шапке жанр совершенно не соответствует реальности. Я бы, например, не стал слушать так описанный альбом, если бы не знал заранее, что это за группа.
Go to the top of the page
  Insert nick Quick quote
+Quote Post

Reply to this topicStart new topic
2 User(s) are reading this topic (2 Guests and 0 Anonymous Users)
0 Members:

 



- Lo-Fi Version Support form
Copyrights and abuse reports form
Time is now: 18th November 2019 - 04:04:24