Welcome Guest ( Log In | Register )

> Releases Upload / Добавление релизов

Добавить релиз тут / Click here to add release
Рекомендованные обменники / Recommended file shares

> Nocturnal Weed - Smoke Inhaler (2019), Stoner/Doom Metal
post Nov 7 2019, 14:27:06
Post #1

Serial Uploader
Group Icon
Group: V.I.P
Posts: 36,597
Releases: 34784
From: Lithuania
On Forums: 11 years 6 months
Thanks: 407380 time(s)
Lithuania


(IMG:https://metalarea.org/images/audiocovers/2019_Nov/acov_tid329988_thumb.jpg)

*Artist: Nocturnal Weed
*Album: Smoke Inhaler
*Year: 2019
*Genre: Stoner/Doom Metal
*Country: Germany (IMG:https://metalarea.org/forum/style_images/flags/Germany.png)
*Format: mp3@CBR320kbps
*Size: 116MB

Tracklist:
01. Smoke Inhaler 10:47
02. Space of Haze 10:44
03. Bud Nevis Smoke 10:59
04. Reptiles Winter 08:13
05. The Golden Seeds 09:31
******************************
Total playing time: 50:14



(IMG:https://metalarea.org/images/youtube.png)

Technical info
(IMG:https://metalarea.org/images/spectrogram/2019_Nov/b98ce2b9984feabb092b18b50f0be000.png)
Input File: 02. Space of Haze.mp3
Channels : 2
Sample Rate : 44100
Precision : 16-bit
Duration : 00:10:43.51 = 28378747 samples = 48263.2 CDDA sectors
File Size : 25.9M
Bit Rate : 322k
Sample Encoding: MPEG audio (layer I, II or III)
Comments :
Title=Space of Haze
Artist=Nocturnal Weed
Album=Smoke Inhaler
Tracknumber=2
Year=2019



Register


Go to the top of the page
  Insert nick Quick quote
+Quote Post
 
Start new topic
Replies (1 - 1)
post Nov 8 2019, 07:09:46
Post #2

Правь статус, ####!111
**************
Group: Металариец
Posts: 44,577
Releases: 688
On Forums: 10 years 6 months
Thanks: 35861 time(s)
Russian Federation


Сыро но дико скушно. Весь альбом как 1 нудная прелая песня.

Названия трэканидзе только хорошечные. Но даже стаффчес не помог им записать удобоваримый материал.
Go to the top of the page
  Insert nick Quick quote
+Quote Post

Reply to this topicStart new topic
1 User(s) are reading this topic (1 Guests and 0 Anonymous Users)
0 Members:

 



- Lo-Fi Version Support form
Copyrights and abuse reports form
Time is now: 12th December 2019 - 11:43:03