Welcome Guest ( Log In | Register )

> Releases Upload / Добавление релизов

Добавить релиз тут / Click here to add release
Рекомендованные обменники / Recommended file shares

> Event Relentless - Circle (2019), Modern Melodic Death Metal
post Nov 7 2019, 14:52:37
Post #1

Serial Uploader
Group Icon
Group: V.I.P
Posts: 36,461
Releases: 34651
From: Lithuania
On Forums: 11 years 5 months
Thanks: 404778 time(s)
Lithuania


(IMG:https://metalarea.org/images/audiocovers/2019_Nov/acov_tid329990_thumb.jpg)

*Artist: Event Relentless
*Album: Circle
*Year: 2019
*Genre: Modern Melodic Death Metal
*Country: Finland (IMG:https://metalarea.org/forum/style_images/flags/Finland.png)
*Format: mp3@CBR320kbps
*Size: 63MB

Tracklist:
01. Slay Away
02. Pleasure & Pain
03. Falling
04. Razor Queen
05. Worthless
06. Scream
07. Circle
******************************
Total playing time: 27:25


(IMG:https://metalarea.org/images/youtube.png)

Technical info
(IMG:https://metalarea.org/images/spectrogram/2019_Nov/650ff90e8a62706c1d897ed66c2df4f2.png)
Input File: 02. Pleasure & Pain.mp3
Channels : 2
Sample Rate : 44100
Precision : 16-bit
Duration : 00:03:25.52 = 9063388 samples = 15413.9 CDDA sectors
File Size : 8.31M
Bit Rate : 324k
Sample Encoding: MPEG audio (layer I, II or III)
Comments :
Title=Pleasure & Pain
Artist=Event Relentless
Album=Circle
Tracknumber=2
Year=2019
Genre=9



Register


Go to the top of the page
  Insert nick Quick quote
+Quote Post
 
Start new topic
Replies (1 - 6)
post Nov 8 2019, 13:46:37
Post #2

Два Литра
**
Group: Завсегдатай
Posts: 121
Releases: 2
On Forums: 9 years 4 months
Thanks: 136 time(s)
Russian Federation


27 минут у них называется полноформатником (IMG:style_emoticons/default/normal_Homerdisgust3.png)

UPD: продолжительность альбома - 30:01
Go to the top of the page
  Insert nick Quick quote
+Quote Post
post Nov 8 2019, 20:33:57
Post #3

Ёлд ХеллоВяйне
Group Icon
Group: V.I.P
Posts: 28,316
Releases: 132
From: Питер
On Forums: 13 years 3 weeks
Thanks: 16089 time(s)
Russian Federation


QUOTE(timteam88 @ 8th November 2019 - 15:46:37) *
27 минут у них называется полноформатником


Знаешь, сколько Reign in Blood идёт? (IMG:style_emoticons/default/crazy.gif)

QUOTE(timteam88 @ 8th November 2019 - 15:46:37) *
UPD: продолжительность альбома - 30:01


На секунду дольше, чем дебют Финнтролля.
Go to the top of the page
  Insert nick Quick quote
+Quote Post
post Nov 8 2019, 21:22:16
Post #4

Тридцать лет на борту "Тяжёлого" крейсера
**************
Group: Металариец
Posts: 2,122
Releases: 0
From: Питер
On Forums: 12 years 5 months
Thanks: 545 time(s)
Russian Federation


где там MDM..невнятная хрень какая-то


Thanks:
Go to the top of the page
  Insert nick Quick quote
+Quote Post
post Nov 8 2019, 23:03:55
Post #5

Два Литра
**
Group: Завсегдатай
Posts: 121
Releases: 2
On Forums: 9 years 4 months
Thanks: 136 time(s)
Russian Federation


ЦИТАТА(Old Vyaine @ Nov 9 2019, 00:33:57) *
Знаешь, сколько Reign in Blood идёт? (IMG:style_emoticons/default/crazy.gif)


Там хотя бы 10 треков. Для треша сойдет. Какой-нибудь дум или атмосферный блэк может 1-7 трек иметь на альбом. А грайнд на 15 треков будет длиться 15 минут. Все относительно
Go to the top of the page
  Insert nick Quick quote
+Quote Post
post Nov 9 2019, 21:39:33
Post #6

MDM-Thrash Metal
**************
Group: Металариец
Posts: 9,072
Releases: 740
From: Одесса
On Forums: 12 years 3 months
Thanks: 19787 time(s)
Ukraine


ЦИТАТА(sadmannn @ Nov 9 2019, 00:22:16) *
где там MDM..невнятная хрень какая-то


Вот с этого и надо начинать!
Go to the top of the page
  Insert nick Quick quote
+Quote Post
post Nov 10 2019, 00:21:10
Post #7

Ёлд ХеллоВяйне
Group Icon
Group: V.I.P
Posts: 28,316
Releases: 132
From: Питер
On Forums: 13 years 3 weeks
Thanks: 16089 time(s)
Russian Federation


QUOTE(timteam88 @ 9th November 2019 - 01:03:55) *
А грайнд на 15 треков будет длиться 15 минут.


Многовато.
Go to the top of the page
  Insert nick Quick quote
+Quote Post

Reply to this topicStart new topic
2 User(s) are reading this topic (2 Guests and 0 Anonymous Users)
0 Members:

 



- Lo-Fi Version Support form
Copyrights and abuse reports form
Time is now: 18th November 2019 - 04:50:05