Welcome Guest ( Log In | Register )

> Releases Upload / Добавление релизов

Добавить релиз тут / Click here to add release
Рекомендованные обменники / Recommended file shares

> Valar Morghulis - Fields Of Ashes (2019), Epic Heavy Metal
post Nov 7 2019, 15:24:55
Post #1

Serial Uploader
Group Icon
Group: V.I.P
Posts: 36,461
Releases: 34651
From: Lithuania
On Forums: 11 years 5 months
Thanks: 404780 time(s)
Lithuania


(IMG:https://metalarea.org/images/audiocovers/2019_Nov/acov_tid329992_thumb.jpg)

*Artist: Valar Morghulis
*Album: Fields Of Ashes
*Year: 2019
*Genre: Epic Heavy Metal
*Country: Italy (IMG:https://metalarea.org/forum/style_images/flags/Italy.png)
*Format: mp3@CBR320kbps
*Size: 109MB

Tracklist:
01. Where the Blackfish Dwell 06:41
02. A Love and Battle Song 05:11
03. Broken Eagle 04:58
04. Devil's Dreams 06:40
05. Dreadfort 05:37
06. Darvulia 05:41
07. Queen of Hades 06:22
08. To the Walls 06:13
******************************
Total playing time: 47:23


(IMG:https://metalarea.org/images/youtube.png)

Technical info
(IMG:https://metalarea.org/images/spectrogram/2019_Nov/d40757f70520e211d327b10222cfab1e.png)
Input File: 02. A Love and Battle Song.mp3
Channels : 2
Sample Rate : 44100
Precision : 16-bit
Duration : 00:05:11.27 = 13726963 samples = 23345.2 CDDA sectors
File Size : 12.5M
Bit Rate : 322k
Sample Encoding: MPEG audio (layer I, II or III)
Comments :
Title=A Love and Battle Song
Artist=Valar Morghulis
Album=Fields of Ashes
Tracknumber=2/8
Year=2019
Genre=9
Discnumber=1/1



Register


Go to the top of the page
  Insert nick Quick quote
+Quote Post
 
Start new topic
Replies (1 - 6)
post Nov 8 2019, 20:32:21
Post #2

Ёлд ХеллоВяйне
Group Icon
Group: V.I.P
Posts: 28,316
Releases: 132
From: Питер
On Forums: 13 years 3 weeks
Thanks: 16089 time(s)
Russian Federation


А неплохо (IMG:style_emoticons/default/hmm.gif) чем-то ранний Dark Moor напомнило.
Go to the top of the page
  Insert nick Quick quote
+Quote Post
post Nov 9 2019, 19:57:07
Post #3

i listen to black metal
**************
Group: Металариец
Posts: 2,437
Releases: 129
From: Москва-Лианозово
On Forums: 12 years 10 months
Thanks: 2074 time(s)
Russian Federation


валар дохаэрис (IMG:style_emoticons/default/5.gif) (IMG:style_emoticons/default/5.gif) (IMG:style_emoticons/default/5.gif)


Thanks:
(1) Deze,
Go to the top of the page
  Insert nick Quick quote
+Quote Post
post Nov 9 2019, 20:09:15
Post #4

И Ван Дамм По Делам Вашим!
**************
Group: Металариец
Posts: 17,887
Releases: 26
On Forums: 11 years 4 months
Thanks: 9651 time(s)
Honduras


ЦИТАТА(Victim of fate @ Nov 9 2019, 20:57:07) *

а я с оригинальничать хотел, не успел.............. (IMG:style_emoticons/default/1488.gif)
Go to the top of the page
  Insert nick Quick quote
+Quote Post
post Nov 9 2019, 21:24:00
Post #5

MDM-Thrash Metal
**************
Group: Металариец
Posts: 9,072
Releases: 740
From: Одесса
On Forums: 12 years 3 months
Thanks: 19788 time(s)
Ukraine



Абсолютно ничем не примечательный сабж, окромя оригинального названия команды.


Thanks:
(1) AHBAnep,
Go to the top of the page
  Insert nick Quick quote
+Quote Post
post Nov 9 2019, 22:49:23
Post #6

Шесть Литров
******
Group: Металариец
Posts: 587
Releases: 0
On Forums: 6 years 3 months
Thanks: 396 time(s)
Australia


Highly laughable.
Go to the top of the page
  Insert nick Quick quote
+Quote Post
post Nov 16 2019, 17:23:38
Post #7

Перевозчик
**************
Group: Металариец
Posts: 3,081
Releases: 0
On Forums: 11 years 4 months
Thanks: 672 time(s)
Russian Federation


ЦИТАТА(Old Vyaine @ Nov 8 2019, 22:32:21) *
А неплохо (IMG:style_emoticons/default/hmm.gif) чем-то ранний Dark Moor напомнило.


Очень лестное, но не особо заслуженное сравнение. Да, у испанцев было такое же говённое качество звука, но по материалу там уровень на порядок выше, да и Элиза пела получше.
Go to the top of the page
  Insert nick Quick quote
+Quote Post

Reply to this topicStart new topic
2 User(s) are reading this topic (2 Guests and 0 Anonymous Users)
0 Members:

 



- Lo-Fi Version Support form
Copyrights and abuse reports form
Time is now: 18th November 2019 - 05:05:18