Welcome Guest ( Log In | Register )

> Releases Upload / Добавление релизов

Добавить релиз тут / Click here to add release
Рекомендованные обменники / Recommended file shares

 
Reply to this topicStart new topic
> Deathsiege - Cannibalistic Patricide [demo] (2019), Death Metal
post Nov 7 2019, 15:48:26
Post #1

Serial Uploader
Group Icon
Group: V.I.P
Posts: 36,429
Releases: 34613
From: Lithuania
On Forums: 11 years 5 months
Thanks: 404241 time(s)
Lithuania


(IMG:https://metalarea.org/images/audiocovers/2019_Nov/acov_tid329995_thumb.jpg)

*Artist: Deathsiege
*Album: Cannibalistic Patricide [demo]
*Year: 2019
*Genre: Death Metal
*Country: Israel (IMG:https://metalarea.org/forum/style_images/flags/Israel.png)
*Format: mp3@CBR320kbps
*Size: 17MB

Tracklist:
01. Cannibalistic Patricide 02:33
02. Revocation Massacre 01:43
03. Ominous Discolored Fire 02:31
******************************
Total playing time: 6:47



Technical info
(IMG:https://metalarea.org/images/spectrogram/2019_Nov/32f6140d3ea2b90f6d861dbd66d93864.png)
Input File: 02. Revocation Massacre.mp3
Channels : 2
Sample Rate : 44100
Precision : 16-bit
Duration : 00:01:43.40 = 4559852 samples = 7754.85 CDDA sectors
File Size : 4.22M
Bit Rate : 326k
Sample Encoding: MPEG audio (layer I, II or III)
Comments :
Title=Revocation Massacre
Artist=Deathsiege
Album=Cannibalistic Patricide
Tracknumber=2
Year=2019



Register


Go to the top of the page
  Insert nick Quick quote
+Quote Post

Reply to this topicStart new topic
2 User(s) are reading this topic (2 Guests and 0 Anonymous Users)
0 Members:

 



- Lo-Fi Version Support form
Copyrights and abuse reports form
Time is now: 13th November 2019 - 21:29:45