Welcome Guest ( Log In | Register )

> Releases Upload / Добавление релизов

Добавить релиз тут / Click here to add release
Рекомендованные обменники / Recommended file shares

> Stoned Jesus - From The Outer Space [compilation] (2019), Stoner/Doom Metal (D)
post Nov 7 2019, 15:59:04
Post #1

Serial Uploader
Group Icon
Group: V.I.P
Posts: 36,429
Releases: 34613
From: Lithuania
On Forums: 11 years 5 months
Thanks: 404238 time(s)
Lithuania


(IMG:https://metalarea.org/images/audiocovers/2019_Nov/acov_tid329996_thumb.jpg)

*Artist: Stoned Jesus
*Album: From The Outer Space [compilation]
*Year: 2019
*Genre: Stoner/Doom Metal
*Country: Ukraine (IMG:https://metalarea.org/forum/style_images/flags/Ukraine.png)
*Format: mp3@CBR320kbps
*Size: 113MB

Tracklist:
01. The Sweet Whore of Babylon 05:53
02. Insatiable King 09:08
03. Eastern Magic 10:03
04. Occult 11:42
05. Black Woods 11:28
******************************
Total playing time: 48:14

(IMG:https://metalarea.org/images/myspace.png)

Preview 3

(IMG:https://metalarea.org/images/youtube.png)

Technical info
(IMG:https://metalarea.org/images/spectrogram/2019_Nov/2032921032d8e43cab49337bf78aefdf.png)
Input File: 04 Occult.mp3
Channels : 2
Sample Rate : 44100
Precision : 16-bit
Duration : 00:11:42.26 = 30969754 samples = 52669.6 CDDA sectors
File Size : 28.6M
Bit Rate : 326k
Sample Encoding: MPEG audio (layer I, II or III)
Comments :
Title=Occult
Artist=Stoned Jesus
Album=From the Outer Space
Tracknumber=4/5
Year=2019
Genre=Rock
Discnumber=1/1



Register


Go to the top of the page
  Insert nick Quick quote
+Quote Post
 
Start new topic
Replies (1 - 2)
post Nov 10 2019, 20:54:01
Post #2

Шесть Литров
******
Group: Металариец
Posts: 639
Releases: 0
From: South Of Heaven
On Forums: 12 years 3 months
Thanks: 291 time(s)
Ukraine


Ваще пацаны в стоунер ушли... (IMG:style_emoticons/default/hmm.gif)
Go to the top of the page
  Insert nick Quick quote
+Quote Post
post Nov 10 2019, 22:26:38
Post #3

Герберт Уэст
**************
Group: Металариец
Posts: 2,204
Releases: 68
From: Поморье
On Forums: 10 years 5 months
Thanks: 4587 time(s)
Russian Federation


Это компиляция из двух ранних демок.
Go to the top of the page
  Insert nick Quick quote
+Quote Post

Reply to this topicStart new topic
2 User(s) are reading this topic (2 Guests and 0 Anonymous Users)
0 Members:

 



- Lo-Fi Version Support form
Copyrights and abuse reports form
Time is now: 13th November 2019 - 20:33:39