Welcome Guest ( Log In | Register )

> Releases Upload / Добавление релизов

Добавить релиз тут / Click here to add release
Рекомендованные обменники / Recommended file shares

 
Reply to this topicStart new topic
> Isekai - Through The Eye Of The Dragon [demo] (2019), Instrumental/Atmospheric Black Metal
post Nov 7 2019, 16:13:14
Post #1

Serial Uploader
Group Icon
Group: V.I.P
Posts: 36,429
Releases: 34613
From: Lithuania
On Forums: 11 years 5 months
Thanks: 404238 time(s)
Lithuania


(IMG:https://metalarea.org/images/audiocovers/2019_Nov/acov_tid329998_thumb.jpg)

*Artist: Isekai
*Album: Through The Eye Of The Dragon [demo]
*Year: 2019
*Genre: Instrumental/Atmospheric Black Metal
*Country: Hungary (IMG:https://metalarea.org/forum/style_images/flags/Hungary.png)
*Format: mp3@CBR320kbps
*Size: 35MB

Tracklist:
01. Through the Eye of the Dragon 09:20
02. Return of the Overlord 05:42
******************************
Total playing time: 15:02




Technical info
(IMG:https://metalarea.org/images/spectrogram/2019_Nov/d2e09a949190b5753fab00a8750061f9.png)
Input File: 02. Return of the Overlord.mp3
Channels : 2
Sample Rate : 44100
Precision : 16-bit
Duration : 00:05:42.25 = 15093181 samples = 25668.7 CDDA sectors
File Size : 13.8M
Bit Rate : 323k
Sample Encoding: MPEG audio (layer I, II or III)
Comments :
Title=Return of the Overlord
Artist=Isekai
Album=Through the Eye of the Dragon
Tracknumber=2
Year=2019



Register


Go to the top of the page
  Insert nick Quick quote
+Quote Post

Reply to this topicStart new topic
2 User(s) are reading this topic (2 Guests and 0 Anonymous Users)
0 Members:

 



- Lo-Fi Version Support form
Copyrights and abuse reports form
Time is now: 13th November 2019 - 20:46:27