Welcome Guest ( Log In | Register )

> Releases Upload / Добавление релизов

Добавить релиз тут / Click here to add release
Рекомендованные обменники / Recommended file shares

 
Reply to this topicStart new topic
> Spitefuel - Flame To The Night (2019), Heavy Metal/Hard Rock
post Nov 7 2019, 16:32:26
Post #1

MDM-Thrash Metal
**************
Group: Металариец
Posts: 9,052
Releases: 734
From: Одесса
On Forums: 12 years 3 months
Thanks: 19698 time(s)
Ukraine


(IMG:http://metalarea.org/images/audiocovers/2019_Nov/acov_tid329999_thumb.jpg)

*Artist: Spitefuel
*Album: Flame To The Night
*Year: 2019
*Genre: Heavy Metal/Hard Rock
*Country: Germany (IMG:http://metalarea.org/forum/style_images/flags/Germany.png)
*Format: mp3@CBR320kbps
*Size: 113MB

Tracklist:
1. Flame to the Night 01:18
2. Stand Your Ground 03:33
3. Machines 04:16
4. Trick or Treat 03:29
5. Till I Die 05:11
6. Bad Boy 03:55
7. Two-Faced 03:07
8. Through the Shades 07:59
9. Firewater 04:37
10. Silent Guard 04:49
11. Try to Hate Me 05:10
******************************
Total playing time: 47:24


(IMG:http://metalarea.org/images/youtube.png)
(IMG:http://metalarea.org/images/youtube.png)

Technical info
(IMG:http://metalarea.org/images/spectrogram/2019_Nov/3da8a575c2849e724655e651c5cb53bc.png)
Input File: 02 Stand Your Ground.mp3
Channels : 2
Sample Rate : 44100
Precision : 16-bit
Duration : 00:03:33.12 = 9398504 samples = 15983.9 CDDA sectors
File Size : 8.99M
Bit Rate : 337k
Sample Encoding: MPEG audio (layer I, II or III)
Comments :
Title=Stand Your Ground
Artist=SpiteFuel
Album=Flame To The Night
Tracknumber=2/11
Year=2019
Genre=Rock
Discnumber=1/1



Register


Go to the top of the page
  Insert nick Quick quote
+Quote Post

Reply to this topicStart new topic
1 User(s) are reading this topic (1 Guests and 0 Anonymous Users)
0 Members:

 



- Lo-Fi Version Support form
Copyrights and abuse reports form
Time is now: 13th November 2019 - 20:51:39