Welcome Guest ( Log In | Register )

> Releases Upload / Добавление релизов

Добавить релиз тут / Click here to add release
Рекомендованные обменники / Recommended file shares

> Dead Reptile Shrine - Tales Of The Unknown (2019), Experimental Black Metal (D)
post Nov 7 2019, 16:35:02
Post #1

а ты попал в даунтаун
**********
Group: Металариец
Posts: 1,249
Releases: 51
From: Москва
On Forums: 10 years 6 months
Thanks: 3470 time(s)
Russian Federation


(IMG:http://metalarea.org/images/audiocovers/2019_Nov/acov_tid330000_thumb.jpg)

*Artist: Dead Reptile Shrine
*Album: Tales Of The Unknown
*Year: 2019
*Genre: Experimental Black Metal
*Country: Finland (IMG:http://metalarea.org/forum/style_images/flags/Finland.png)
*Format: mp3@CBR320kbps
*Size: 172MB

Tracklist:
01. Allied under the Witch Moon 06:50
02. Battlebrothers 07:18
03. A Horned Shadow is Rising over the Ruins 10:49
04. Chaos Mysticism 04:15
05. Summoning the Nocturnal Horde 03:43
06. Genetic Echoes of Primordial Rites 03:11
07. My Coffin 04:21
08. Power Savages of the Glorified Dawn 03:41
09. Dungeons of Deceit 03:00
10. Valley of the Fireflies 04:12
11. Legions Gathered under the Banner of the Darksword Chieftain 02:37
12. The Bloodrider 04:58
13. The Journey Continues 03:34
14. Hill of Sacrifice 05:29
15. Cosmic Mist upon the Dark Warrior 04:35
******************************
Total playing time: 1:12:33

(IMG:http://metalarea.org/images/youtube.png)

Extended info
Bestial Burst ‎– BeBu-131


Technical info
(IMG:http://metalarea.org/images/spectrogram/2019_Nov/5a1325082e9d80e8bb2b28cdbdf1467e.png)
Input File: 02 - Battlebrothers.mp3
Channels : 2
Sample Rate : 44100
Precision : 16-bit
Duration : 00:07:20.17 = 19411629 samples = 33013 CDDA sectors
File Size : 17.6M
Bit Rate : 321k
Sample Encoding: MPEG audio (layer I, II or III)
Comments :
Title=Battlebrothers
Artist=Dead Reptile Shrine
Album=Tales Of The Unknown
Tracknumber=02/15
Year=2019
Genre=Experimental Black Metal
Discnumber=1/1



Register


Go to the top of the page
  Insert nick Quick quote
+Quote Post
 
Start new topic
Replies (1 - 8)
post Nov 8 2019, 06:13:35
Post #2

sycamore trees
**************
Group: Металариец
Posts: 3,118
Releases: 0
On Forums: 3 years 9 months
Thanks: 1900 time(s)
Unknown


(IMG:style_emoticons/default/9.gif) (IMG:style_emoticons/default/headcrab.png)
Go to the top of the page
  Insert nick Quick quote
+Quote Post
post Nov 8 2019, 06:22:46
Post #3

Самый Тихий Час
**************
Group: Металариец
Posts: 5,792
Releases: 0
On Forums: 10 years 1 day
Thanks: 2614 time(s)
Unknown


Прощай кукуха.
Go to the top of the page
  Insert nick Quick quote
+Quote Post
post Nov 8 2019, 08:28:28
Post #4

Семь Литров
*******
Group: Металариец
Posts: 741
Releases: 0
On Forums: 12 years 3 weeks
Thanks: 284 time(s)
Belarus


кто прослушал, это слушабельно? по превью хрень какая-то невнятная с воем
Go to the top of the page
  Insert nick Quick quote
+Quote Post
post Nov 8 2019, 10:05:39
Post #5

кручу наждак
**************
Group: Металариец
Posts: 4,111
Releases: 98
From: Самара
On Forums: 9 years 6 months
Thanks: 3179 time(s)
Russian Federation


ЦИТАТА(gena @ Nov 8 2019, 08:28:28) *
кто прослушал, это слушабельно? по превью хрень какая-то невнятная с воем

Всегда были хренью невнятной, почему должно было что-то поменяться?
Go to the top of the page
  Insert nick Quick quote
+Quote Post
post Nov 8 2019, 11:03:06
Post #6

sycamore trees
**************
Group: Металариец
Posts: 3,118
Releases: 0
On Forums: 3 years 9 months
Thanks: 1900 time(s)
Unknown


ЦИТАТА(gena @ 8th November 2019 - 12:28:28) *
кто прослушал, это слушабельно? по превью хрень какая-то невнятная с воем

человекам не жаль тебя))


Thanks:
(1) templ,
Go to the top of the page
  Insert nick Quick quote
+Quote Post
post Nov 8 2019, 16:32:24
Post #7
BAN
Banned till
Nov 15 2019, 20:18:13



ЦИТАТА(gena @ Nov 8 2019, 08:28:28) *
кто прослушал, это слушабельно? по превью хрень какая-то невнятная с воем


нубы в треде


Thanks:
Go to the top of the page
  Insert nick Quick quote
+Quote Post
post Nov 8 2019, 17:34:18
Post #8

Detective Godzilla
Group Icon
Group: Moderation team
Posts: 3,119
Releases: 259
On Forums: 8 years 9 months
Thanks: 9063 time(s)
Russian Federation


Очень хорошо
Go to the top of the page
  Insert nick Quick quote
+Quote Post
post Nov 8 2019, 18:57:30
Post #9

Три Литра
***
Group: Завсегдатай
Posts: 218
Releases: 0
From: Пермь
On Forums: 11 years 8 months
Thanks: 19 time(s)
Russian Federation


Один из лучших альбомов у них, по мне
Go to the top of the page
  Insert nick Quick quote
+Quote Post

Reply to this topicStart new topic
2 User(s) are reading this topic (2 Guests and 0 Anonymous Users)
0 Members:

 



- Lo-Fi Version Support form
Copyrights and abuse reports form
Time is now: 13th November 2019 - 20:58:52