Welcome Guest ( Log In | Register )

> I Eliminate - I Eliminate (2019), Death Metal
post Nov 7 2019, 16:43:56
Post #1

MDM-Thrash Metal
**************
Group: Металариец
Posts: 9,511
Releases: 861
From: Одесса
On Forums: 12 years 9 months
Thanks: 22562 time(s)
Ukraine


(IMG:http://metalarea.org/images/audiocovers/2019_Nov/acov_tid330002_thumb.jpg)

*Artist: I Eliminate
*Album: I Eliminate
*Year: 2019
*Genre: Death Metal
*Country: Costa Rica (IMG:http://metalarea.org/forum/style_images/flags/Costa%20Rica.png)
*Format: mp3@CBR320kbps
*Size: 89MB

Tracklist:
01. The Red Buffalo
02. Chaos In Your Mind
03. Where Lying is the Only Truth
04. Path of Coldness
05. Misericordia
06. Fear Rooting Out your Bones
07. Holla if you Need Me
08. Of Dead Faces
09. We Turn to Rise
10. The Knife (Feat. Mafia Kampesina
11. Till She Came out to my Place
******************************
Total playing time: 37:56



(IMG:http://metalarea.org/images/youtube.png)
(IMG:http://metalarea.org/images/youtube.png)

Technical info
(IMG:http://metalarea.org/images/spectrogram/2019_Nov/356b649aace967f005cd9f2641184527.png)
Input File: I Eliminate - I Eliminate - 02 Chaos In Your Mind.mp3
Channels : 2
Sample Rate : 44100
Precision : 16-bit
Duration : 00:03:36.33 = 9540197 samples = 16224.8 CDDA sectors
File Size : 8.81M
Bit Rate : 326k
Sample Encoding: MPEG audio (layer I, II or III)
Comments :
Title=Chaos In Your Mind
Artist=I Eliminate
Album=I Eliminate
Tracknumber=2
Year=2019



Register


Go to the top of the page
  Insert nick Quick quote
+Quote Post
 
Start new topic
Replies (1 - 1)
post Nov 8 2019, 18:23:33
Post #2

Совки, гулаги, дефициты
***********
Group: Металариец
Posts: 1,680
Releases: 0
From: Беларусь, Минск
On Forums: 12 years 10 months
Thanks: 822 time(s)
Belarus


Неплохо, кстати.
Go to the top of the page
  Insert nick Quick quote
+Quote Post

Reply to this topicStart new topic
1 User(s) are reading this topic (1 Guests and 0 Anonymous Users)
0 Members:

 



- Lo-Fi Version Support form
Copyrights and abuse reports form
Time is now: 27th May 2020 - 03:07:53