Welcome Guest ( Log In | Register )

> Releases Upload / Добавление релизов

Добавить релиз тут / Click here to add release
Рекомендованные обменники / Recommended file shares

> Legion Of Doom - God Is Dead (2005), Black Metal (D)
post Nov 7 2019, 16:50:41
Post #1

Правь статус, ####!111
**************
Group: Металариец
Posts: 6,644
Releases: 165
From: URUGUAY
On Forums: 13 years 1 month
Thanks: 17318 time(s)
Uruguay


(IMG:http://metalarea.org/images/audiocovers/2019_Nov/acov_tid330003_thumb.jpg)

*Artist: Legion Of Doom
*Album: God Is Dead
*Year: 2005
*Genre: Black Metal
*Country: Greece (IMG:http://metalarea.org/forum/style_images/flags/Greece.png)
*Format: mp3@CBR320kbps
*Size: 94MB

Tracklist:
1. Necromantion 07:17
2. Bridge Of Lunar Tears 05:45
3. Lasselanta 05:48
4. Message From The Gods 04:19
5. Ancient Wisdom Within 04:08
6. God Is Dead 04:48
7. Sacrifice And War 04:31
8. Illusions 04:21
******************************
Total playing time: 40:57

Technical info
(IMG:http://metalarea.org/images/spectrogram/2019_Nov/13fe339c52159d86035bd9a816135cae.png)
Input File: 02 - Bridge of Lunar Tears.mp3
Channels : 2
Sample Rate : 44100
Precision : 16-bit
Duration : 00:05:44.73 = 15202593 samples = 25854.8 CDDA sectors
File Size : 14.1M
Bit Rate : 328k
Sample Encoding: MPEG audio (layer I, II or III)
Comments :
Title=Bridge of Lunar Tears
Artist=Legion of Doom
Album=God Is Dead
Tracknumber=2
Year=2005-01-01
Genre=Pop
Discnumber=1



Register


Go to the top of the page
  Insert nick Quick quote
+Quote Post
 
Start new topic
Replies (1 - 2)
post Nov 8 2019, 07:13:31
Post #2

De Mysteriis Dom Sathanas
**************
Group: Металариец
Posts: 3,713
Releases: 63
From: Doom
On Forums: 11 years 4 months
Thanks: 3127 time(s)
Russian Federation


Было уже SABRAX'ом выложено и тоже в 320
Go to the top of the page
  Insert nick Quick quote
+Quote Post
post Nov 9 2019, 17:26:38
Post #3

Правь статус, ####!111
**************
Group: Металариец
Posts: 2,716
Releases: 8
From: Dnipro
On Forums: 11 years 4 months
Thanks: 851 time(s)
Ukraine


Давно уже имеется на CD
Go to the top of the page
  Insert nick Quick quote
+Quote Post

Reply to this topicStart new topic
2 User(s) are reading this topic (2 Guests and 0 Anonymous Users)
0 Members:

 



- Lo-Fi Version Support form
Copyrights and abuse reports form
Time is now: 13th November 2019 - 20:19:54