Welcome Guest ( Log In | Register )

> Releases Upload / Добавление релизов

Добавить релиз тут / Click here to add release
Рекомендованные обменники / Recommended file shares

> Revenant Marquis - Anti-Universal Compassion (2019), Raw Black Metal
post Nov 7 2019, 16:55:36
Post #1

а ты попал в даунтаун
**********
Group: Металариец
Posts: 1,249
Releases: 51
From: Москва
On Forums: 10 years 6 months
Thanks: 3470 time(s)
Russian Federation


(IMG:http://metalarea.org/images/audiocovers/2019_Nov/acov_tid330005_thumb.jpg)

*Artist: Revenant Marquis
*Album: Anti-Universal Compassion
*Year: 2019
*Genre: Raw Black Metal
*Country: United Kingdom (IMG:http://metalarea.org/forum/style_images/flags/United%20Kingdom.png)
*Format: mp3@CBR320kbps
*Size: 85MB

Tracklist:
01. Sequestered Supremacy 04:03
02. Malice is the Spear 04:10
03. The Philanthropy Aberration 04:38
04. Pentre Ifan 04:07
05. Exsanguination 01:39
06. Spectres of Pneumonia 09:10
07. A Pox upon the Moonlit Cross 04:32
08. Ystlum 03:28
******************************
Total playing time: 35:47

Extended info
New Era Productions


Technical info
(IMG:http://metalarea.org/images/spectrogram/2019_Nov/be7166c652c4d5e9777266bfe1e6cf72.png)
Input File: 04 - Pentre Ifan.mp3
Channels : 2
Sample Rate : 44100
Precision : 16-bit
Duration : 00:04:07.61 = 10919381 samples = 18570.4 CDDA sectors
File Size : 9.92M
Bit Rate : 321k
Sample Encoding: MPEG audio (layer I, II or III)
Comments :
Title=Pentre Ifan
Artist=Revenant Marquis
Album=Anti-Universal Compassion
Tracknumber=04/08
Year=2019
Genre=Raw Black Metal
Discnumber=1/1



Register


Go to the top of the page
  Insert nick Quick quote
+Quote Post
 
Start new topic
Replies (1 - 3)
post Nov 8 2019, 07:11:03
Post #2

De Mysteriis Dom Sathanas
**************
Group: Металариец
Posts: 3,713
Releases: 63
From: Doom
On Forums: 11 years 4 months
Thanks: 3128 time(s)
Russian Federation


4-й невнятный альбом за 2019 год (IMG:style_emoticons/default/25.gif)
Go to the top of the page
  Insert nick Quick quote
+Quote Post
post Nov 8 2019, 19:55:50
Post #3

а ты попал в даунтаун
**********
Group: Металариец
Posts: 1,249
Releases: 51
From: Москва
On Forums: 10 years 6 months
Thanks: 3470 time(s)
Russian Federation


ЦИТАТА(RUSP73 @ 8th November 2019 - 09:11:03) *
4-й невнятный альбом за 2019 год
Не гони, лишь второй: первый был в 2018, а четвёртый будет только в январе 2020 (IMG:style_emoticons/default/1488.gif)
Go to the top of the page
  Insert nick Quick quote
+Quote Post
post Nov 10 2019, 06:15:37
Post #4

my church is black
********
Group: Металариец
Posts: 851
Releases: 1
On Forums: 2 years 5 months
Thanks: 490 time(s)
Cape Verde


Ннну такое... два трека еле осилил.
Go to the top of the page
  Insert nick Quick quote
+Quote Post

Reply to this topicStart new topic
1 User(s) are reading this topic (1 Guests and 0 Anonymous Users)
0 Members:

 



- Lo-Fi Version Support form
Copyrights and abuse reports form
Time is now: 13th November 2019 - 21:30:51