Welcome Guest ( Log In | Register )

> Releases Upload / Добавление релизов

Добавить релиз тут / Click here to add release
Рекомендованные обменники / Recommended file shares

 
Reply to this topicStart new topic
> Mythic Dawn - Solens Tyranni [ep] (2019), Black Metal
post Nov 7 2019, 18:06:38
Post #1

Правь статус, ####!616
**************
Group: Металариец
Posts: 4,704
Releases: 3283
From: 55°35’N 38°08’E
On Forums: 11 years 4 months
Thanks: 61989 time(s)
Unknown


(IMG:http://metalarea.org/images/audiocovers/2019_Nov/acov_tid330006_thumb.jpg)

*Artist: Mythic Dawn
*Album: Solens Tyranni [ep]
*Year: 2019
*Genre: Black Metal
*Country: Sweden (IMG:http://metalarea.org/forum/style_images/flags/Sweden.png)
*Format: mp3@CBR320kbps
*Size: 41MB

Tracklist:
1.Djävulsk Andakt 00:39
2.Satans Slott 04:12
3.Grevens Kammare 04:05
4.Över Dyning 00:36
5.Grift I Hav 04:10
6.Skald Av Satans Sol (Darkthrone Cover) 04:18
******************************
Total playing time: 18:00



Technical info
(IMG:http://metalarea.org/images/spectrogram/2019_Nov/36fb249f2c3b51d823b84309ce8b0e67.png)
Input File: 02 Satans Slott.mp3
Channels : 2
Sample Rate : 44100
Precision : 16-bit
Duration : 00:04:12.60 = 11139440 samples = 18944.6 CDDA sectors
File Size : 10.2M
Bit Rate : 322k
Sample Encoding: MPEG audio (layer I, II or III)
Comments :
Title=Satans Slott
Artist=Mythic Dawn
Album=Solens Tyranni
Tracknumber=2
Year=2019
Genre=Black Metal



Register


Go to the top of the page
  Insert nick Quick quote
+Quote Post

Reply to this topicStart new topic
1 User(s) are reading this topic (1 Guests and 0 Anonymous Users)
0 Members:

 



- Lo-Fi Version Support form
Copyrights and abuse reports form
Time is now: 13th November 2019 - 20:34:39