Welcome Guest ( Log In | Register )

> Releases Upload / Добавление релизов

Добавить релиз тут / Click here to add release
Рекомендованные обменники / Recommended file shares

 
Reply to this topicStart new topic
> Ghrelin - Compelled By Darkness (2019), Death Metal
post Nov 7 2019, 18:31:28
Post #1

Правь статус, ####!111
**************
Group: Металариец
Posts: 19,546
Releases: 13235
From: Г.Харьков
On Forums: 7 years 6 months
Thanks: 228125 time(s)
Unknown


(IMG:http://metalarea.org/images/audiocovers/2019_Nov/acov_tid330007_thumb.jpg)

*Artist: Ghrelin
*Album: Compelled By Darkness
*Year: 2019
*Genre: Death Metal
*Country: United States (IMG:http://metalarea.org/forum/style_images/flags/United%20States.png)
*Format: mp3@CBR320kbps
*Size: 74MB

Tracklist:
1. Compelled by Darkness 04:24
2. Salivate the Wound 00:29
3. Unholy Sludge Baptism 02:58
4. Consume the Abyss 02:36
5. Harem of Agony 02:23
6. Fecal Remains 03:41
7. 3 Am Altar of Fuck 01:53
8. Tombs of Dust 02:43
9. Domain of Flesh 02:20
10. Abrupt Impalement 02:15
11. They Dwell 03:31
12. Abdicate the Mystic Throne 05:33
******************************
Total playing time: 34:46



Extended info




Technical info
(IMG:http://metalarea.org/images/spectrogram/2019_Nov/57feed366790767ea88107c7b3700660.png)
Input File: 06. Fecal Remains.mp3
Channels : 2
Sample Rate : 44100
Precision : 16-bit
Duration : 00:03:41.25 = 9756949 samples = 16593.5 CDDA sectors
File Size : 8.99M
Bit Rate : 325k
Sample Encoding: MPEG audio (layer I, II or III)
Comments :
Title=Fecal Remains
Artist=Ghrelin
Album=Compelled by Darkness
Tracknumber=6/12
Year=2019
Genre=9
Discnumber=1/1



Register


Go to the top of the page
  Insert nick Quick quote
+Quote Post

Reply to this topicStart new topic
1 User(s) are reading this topic (1 Guests and 0 Anonymous Users)
0 Members:

 



- Lo-Fi Version Support form
Copyrights and abuse reports form
Time is now: 20th November 2019 - 11:01:49