Welcome Guest ( Log In | Register )

> И неформату есть предел.

Рэп/хип-хоп/шансон/поп удаляются. Для них есть свои порталы.

> Sleeping Peonies - Glitterghast (2018), Blackgaze (D5)
post Nov 7 2019, 20:41:06
Post #1

Group: Дух
Posts: 19
Releases: 15
On Forums: 1 week 3 days
Thanks: 169 time(s)
Unknown


(IMG:http://metalarea.org/images/audiocovers/2019_Nov/acov_tid330011_thumb.jpg)

*Artist: Sleeping Peonies
*Album: Glitterghast
*Year: 2018
*Genre: Blackgaze
*Country: United Kingdom (IMG:http://metalarea.org/forum/style_images/flags/United%20Kingdom.png)
*Format: mp3@CBR320kbps
*Size: 61MB

Tracklist:
01. Rose Smog 02:15
02. Chamomile Hex 03:42
03. Deathswells 04:22
04. Sullen // Sulk 03:49
05. Soft Hands // Hard Hands 02:28
06. Drowning Yrself To Become The Sea 02:42
07. Bllurre 03:50
08. Salt & Sorrow 03:26
******************************
Total playing time: 26:34




Extended info
Sleeping Peonies is a shoegaze and screamo infused black metal project from the east coast of England. The album is about ghostliness and ghastliness. Self-released, 2018.


Technical info
(IMG:http://metalarea.org/images/spectrogram/2019_Nov/4ba55d5858e78225c1dad3ee16804a6a.png)
Input File: 01. Rose Smog.mp3
Channels : 2
Sample Rate : 44100
Precision : 16-bit
Duration : 00:02:15.87 = 5991999 samples = 10190.5 CDDA sectors
File Size : 5.94M
Bit Rate : 350k
Sample Encoding: MPEG audio (layer I, II or III)
Comments :
Title=Rose Smog
Artist=Sleeping Peonies
Album=Glitterghast
Tracknumber=01
Year=2018



Register


Go to the top of the page
  Insert nick Quick quote
+Quote Post
 
Start new topic
Replies (1 - 1)
post Nov 8 2019, 11:35:20
Post #2

Маньяк
**********
Group: Металариец
Posts: 1,047
Releases: 14
On Forums: 11 years 1 month
Thanks: 865 time(s)
Russian Federation


Одна песня у них нравится.

Go to the top of the page
  Insert nick Quick quote
+Quote Post

Reply to this topicStart new topic
1 User(s) are reading this topic (1 Guests and 0 Anonymous Users)
0 Members:

 



- Lo-Fi Version Support form
Copyrights and abuse reports form
Time is now: 18th November 2019 - 05:21:36