Welcome Guest ( Log In | Register )

> Releases Upload / Добавление релизов

Добавить релиз тут / Click here to add release
Рекомендованные обменники / Recommended file shares

> Midnight - Rebirth By Blasphemy [single] (2019), Black/Speed Metal
post Nov 7 2019, 21:26:14
Post #1

MDM-Thrash Metal
**************
Group: Металариец
Posts: 9,052
Releases: 734
From: Одесса
On Forums: 12 years 3 months
Thanks: 19698 time(s)
Ukraine


(IMG:http://metalarea.org/images/audiocovers/2019_Nov/acov_tid330012_thumb.jpg)

*Artist: Midnight
*Album: Rebirth By Blasphemy [single]
*Year: 2019
*Genre: Black/Speed Metal
*Country: United States (IMG:http://metalarea.org/forum/style_images/flags/United%20States.png)
*Format: mp3@CBR320kbps
*Size: 9MB

Tracklist:
1. Rebirth by Blasphemy 03:07
******************************
Total playing time: 3:07




Technical info
(IMG:http://metalarea.org/images/spectrogram/2019_Nov/4d4440a3ef49c7b33baf8615f0375b0f.png)
Input File: 1 Rebirth by Blasphemy.mp3
Channels : 2
Sample Rate : 44100
Precision : 16-bit
Duration : 00:00:00.19 = 8247 samples = 14.0255 CDDA sectors
File Size : 8.51M
Bit Rate : 364M
Sample Encoding: MPEG audio (layer I, II or III)
Comments :
Title=Rebirth by Blasphemy
Artist=Midnight
Album=Rebirth by Blasphemy
Tracknumber=1/1
Year=2019
Genre=Metal
Discnumber=1/1



Register


Go to the top of the page
  Insert nick Quick quote
+Quote Post
 
Start new topic
Replies (1 - 1)
post Nov 11 2019, 17:09:18
Post #2

Group: Подсевший
Posts: 18
Releases: 0
On Forums: 2 weeks 2 days
Thanks: 4 time(s)
Unknown


Как всегда хороши (IMG:style_emoticons/default/metaler.gif)
Go to the top of the page
  Insert nick Quick quote
+Quote Post

Reply to this topicStart new topic
1 User(s) are reading this topic (1 Guests and 0 Anonymous Users)
0 Members:

 



- Lo-Fi Version Support form
Copyrights and abuse reports form
Time is now: 13th November 2019 - 20:31:16