Welcome Guest ( Log In | Register )

> И неформату есть предел.

Рэп/хип-хоп/шансон/поп удаляются. Для них есть свои порталы.

> Majeure - Mass Flashback (2019), Progressive Rock/Krautrock/Electronic
post Nov 7 2019, 21:55:51
Post #1

Правь статус, ####!111
**************
Group: Металариец
Posts: 44,055
Releases: 674
On Forums: 10 years 5 months
Thanks: 35343 time(s)
Russian Federation


(IMG:http://metalarea.org/images/audiocovers/2019_Nov/acov_tid330013_thumb.png)

*Artist: Majeure
*Album: Mass Flashback
*Year: 2019
*Genre: Progressive Rock/Krautrock/Electronic
*Country: United States (IMG:http://metalarea.org/forum/style_images/flags/United%20States.png)
*Format: mp3@CBR320kbps
*Size: 86MB

Tracklist:
1. Longing, Love, Loss 04:47
2. Mass Flashback 06:12
3. Prescience Acquired 04:26
4. Sundog Blues 07:32
5. Face Dancer 07:46
6. Universal Out 05:31
******************************
Total playing time: 36:14



Technical info
(IMG:http://metalarea.org/images/spectrogram/2019_Nov/e3699db8bed7b50c4b512704fc23b98c.png)
Input File: 1 - longing, love, loss.mp3
Channels : 2
Sample Rate : 44100
Precision : 16-bit
Duration : 00:04:47.00 = 12656700 samples = 21525 CDDA sectors
File Size : 12.1M
Bit Rate : 337k
Sample Encoding: MPEG audio (layer I, II or III)
Comments :
Title=Longing, Love, Loss
Artist=Majeure
Album=Mass Flashback
Tracknumber=1
Genre=Electro
Discnumber=1



Register


Go to the top of the page
  Insert nick Quick quote
+Quote Post
 
Start new topic
Replies (1 - 3)
post Nov 8 2019, 06:22:20
Post #2

Правь статус, ####!111
**************
Group: Металариец
Posts: 44,055
Releases: 674
On Forums: 10 years 5 months
Thanks: 35343 time(s)
Russian Federation


Волшебной красоты альбом (IMG:style_emoticons/default/pray.gif)
Go to the top of the page
  Insert nick Quick quote
+Quote Post
post Nov 10 2019, 12:26:02
Post #3

Три Литра
***
Group: Завсегдатай
Posts: 274
Releases: 0
From: Kyiv
On Forums: 7 years 7 months
Thanks: 106 time(s)
Ukraine


...уже удалённый
Go to the top of the page
  Insert nick Quick quote
+Quote Post
post Nov 10 2019, 12:57:17
Post #4

Правь статус, ####!111
**************
Group: Металариец
Posts: 4,238
Releases: 0
From: Одесса
On Forums: 11 years 8 months
Thanks: 2513 time(s)
Unknown


QUOTE(kessler @ Nov 10 2019, 12:26:02) *
...уже удалённый

link works fine


Thanks:
Go to the top of the page
  Insert nick Quick quote
+Quote Post

Reply to this topicStart new topic
1 User(s) are reading this topic (1 Guests and 0 Anonymous Users)
0 Members:

 



- Lo-Fi Version Support form
Copyrights and abuse reports form
Time is now: 18th November 2019 - 05:36:43