Welcome Guest ( Log In | Register )

> Releases Upload / Добавление релизов

Добавить релиз тут / Click here to add release
Рекомендованные обменники / Recommended file shares

 
Reply to this topicStart new topic
> Dismemberment - Arc Of Ancients (2019), Thrash/Black/Death Metal
post Nov 7 2019, 22:52:44
Post #1

Правь статус, ####!111
**************
Group: Металариец
Posts: 19,546
Releases: 13230
From: Г.Харьков
On Forums: 7 years 6 months
Thanks: 228111 time(s)
Unknown


(IMG:http://metalarea.org/images/audiocovers/2019_Nov/acov_tid330015_thumb.jpg)

*Artist: Dismemberment
*Album: Arc Of Ancients
*Year: 2019
*Genre: Thrash/Black/Death Metal
*Country: United States (IMG:http://metalarea.org/forum/style_images/flags/United%20States.png)
*Format: mp3@CBR320kbps
*Size: 86MB

Tracklist:
1. From the Depths 00:54 instrumental
2. A Path Beyond 03:16
3. Through Earth and Steel... 03:42
4. Beneath Bitter Frost 03:29
5. Winds of Tribulation 03:26
6. Perdition's Flame 04:08
7. Now as One 06:11
8. Once Forsaken 04:24
9. Final Outcome 06:17
******************************
Total playing time: 35:47




Extended info
J.D. Henderly Bass, Vocals
See also: Scum Guilt
Taylor Emerine Drums
Luke Shively Guitars, Vocals
See also: Incantation (live)
Jacob Shively Guitars, Vocals (backing)
See also: Scum Guilt, Master (live), ex-Acheron (live), ex-Incantation (live)


Technical info
(IMG:http://metalarea.org/images/spectrogram/2019_Nov/0153bf2805a33f855169c4c87b49fa74.png)
Input File: 06 Perdition\'s Flame.mp3
Channels : 2
Sample Rate : 44100
Precision : 16-bit
Duration : 00:04:08.10 = 10941122 samples = 18607.4 CDDA sectors
File Size : 10.4M
Bit Rate : 335k
Sample Encoding: MPEG audio (layer I, II or III)
Comments :
Title=Perdition's Flame
Artist=Dismemberment
Album=Arc of Ancients
Tracknumber=6/9
Year=2019
Discnumber=1/1



Register


Go to the top of the page
  Insert nick Quick quote
+Quote Post

Reply to this topicStart new topic
2 User(s) are reading this topic (2 Guests and 0 Anonymous Users)
0 Members:

 



- Lo-Fi Version Support form
Copyrights and abuse reports form
Time is now: 20th November 2019 - 10:11:57