Welcome Guest ( Log In | Register )

> И неформату есть предел.

Рэп/хип-хоп/шансон/поп удаляются. Для них есть свои порталы.

> Wolfbrigade - The Enemy: Reality (2019), Crust/D-Beat (D9)
post Nov 8 2019, 05:16:01
Post #1

Четыре Литра
****
Group: Металариец
Posts: 322
Releases: 181
On Forums: 7 years 2 months
Thanks: 4395 time(s)
Unknown


(IMG:http://metalarea.org/images/audiocovers/2019_Nov/acov_tid330017_thumb.jpg)

*Artist: Wolfbrigade
*Album: The Enemy: Reality
*Year: 2019
*Genre: Crust/D-Beat
*Country: Sweden (IMG:http://metalarea.org/forum/style_images/flags/Sweden.png)
*Format: mp3@CBR320kbps
*Size: 65MB

Tracklist:
1. Sum of All Vices 02:34
2. Fire Untamed 02:49
3. The Wolfman 02:33
4. Hammer to the Skull 02:49
5. Narcissitic Breed 02:21
6. Nightmare of Wolves 03:13
7. Doomsday Dominion 02:36
8. Wells of Despair 02:13
9. Human Beast 03:41
10. Hunt the Hunter 02:45
******************************
Total playing time: 27:34



Technical info
(IMG:http://metalarea.org/images/spectrogram/2019_Nov/efefe0527a6f564a49f3d82027ee88aa.png)
Input File: 1 - Sum of All Vices.mp3
Channels : 2
Sample Rate : 44100
Precision : 16-bit
Duration : 00:02:34.55 = 6815567 samples = 11591.1 CDDA sectors
File Size : 6.36M
Bit Rate : 329k
Sample Encoding: MPEG audio (layer I, II or III)
Comments :
Title=Sum of All Vices
Artist=Wolfbrigade
Album=The Enemy: Reality
Tracknumber=1
Year=2019
Genre=Metal
Discnumber=1



Register


Go to the top of the page
  Insert nick Quick quote
+Quote Post
 
Start new topic
Replies (1 - 3)
post Nov 8 2019, 12:37:48
Post #2

Ледоруб
**************
Group: Металариец
Posts: 23,375
Releases: 0
From: Санкт-Петербург
On Forums: 10 years 2 months
Thanks: 7810 time(s)
Russian Federation


Делаю зарубку.
Go to the top of the page
  Insert nick Quick quote
+Quote Post
post Nov 8 2019, 14:35:29
Post #3

Правь статус, ####!111
**************
Group: Металариец
Posts: 44,077
Releases: 674
On Forums: 10 years 5 months
Thanks: 35354 time(s)
Russian Federation


Вспомнился эпичный бомбёж Олега Эстетика в теме с предыдущим альбомом (IMG:style_emoticons/default/1488.gif)

Wolfbrigade - Run With The Hunted (2017)
Go to the top of the page
  Insert nick Quick quote
+Quote Post
post Nov 8 2019, 16:04:43
Post #4

frost junkie
*****
Group: Металариец
Posts: 419
Releases: 8
On Forums: 10 years 10 months
Thanks: 351 time(s)
Ukraine


Narcissitic Breed (IMG:style_emoticons/default/20.gif) I SAY GODSPEEEEEEED
Go to the top of the page
  Insert nick Quick quote
+Quote Post

Reply to this topicStart new topic
2 User(s) are reading this topic (2 Guests and 0 Anonymous Users)
0 Members:

 



- Lo-Fi Version Support form
Copyrights and abuse reports form
Time is now: 18th November 2019 - 14:15:38