Welcome Guest ( Log In | Register )

> Releases Upload / Добавление релизов

Добавить релиз тут / Click here to add release
Рекомендованные обменники / Recommended file shares

 
Reply to this topicStart new topic
> Wells Valley - Reconcile The Antinomy (2019), Blackened Sludge/Post Metal
post Nov 8 2019, 05:24:59
Post #1

Четыре Литра
****
Group: Металариец
Posts: 319
Releases: 177
On Forums: 7 years 2 months
Thanks: 4312 time(s)
Unknown


(IMG:http://metalarea.org/images/audiocovers/2019_Nov/acov_tid330018_thumb.jpg)

*Artist: Wells Valley
*Album: Reconcile The Antinomy
*Year: 2019
*Genre: Blackened Sludge/Post Metal
*Country: Portugal (IMG:http://metalarea.org/forum/style_images/flags/Portugal.png)
*Format: mp3@CBR320kbps
*Size: 107MB

Tracklist:
1. Antient 07:25
2. Pleroma 06:45
3. Henosis 07:08
4. Hypostasis 07:38
5. Paragon 07:47
6. Forty Days 10:03
******************************
Total playing time: 46:46



Extended info
Wells Valley is a Portuguese Blackened Avant-Garde Metal trio (Filipe Correia - vocals and guitars / Mau - drums / Pedro Lopes - bass) from Lisbon, formed in October 2011.
The band's distinctive sound draw from Black/Doom-Metal, old Psychedelic Rock to Avant-Garde Music.
Wells Valley recorded the first full length studio album “Matter As Regent” (2015, Digipak) and one EP “The Orphic” (2017, limited edition Vinyl), released by Raging Planet, Bleak Recordings and Chaosphere Recordings.

Wells Valley's lyrical concept is inspired by cosmology, hermeticism and theology.
Through the years the band count numerous shows, sharing stages with several bands such as Jucifer, Bolzer, Mantar, Weedeater, among many others.


This six piece ensemble is the grief of Doom ambience with outbursts of Black-metal malignacy and wrath." Reconcile The Antinomy" it's a spectral torrent of overwhelming feelings and introspective relief."

- Pedro Mau (Drums)
- Filipe Correia (Vocals, Guitars)
- Pedro Lopes (Bass)


Technical info
(IMG:http://metalarea.org/images/spectrogram/2019_Nov/f1a26722805341ad31eb727a2ae862d4.png)
Input File: 1 - Antient.mp3
Channels : 2
Sample Rate : 44100
Precision : 16-bit
Duration : 00:07:26.01 = 19669173 samples = 33451 CDDA sectors
File Size : 17.9M
Bit Rate : 322k
Sample Encoding: MPEG audio (layer I, II or III)
Comments :
Title=Antient
Artist=Wells Valley
Album=Reconcile the Anatomy
Tracknumber=1
Year=2019
Genre=Alternative;Rock
Discnumber=1



Register


Go to the top of the page
  Insert nick Quick quote
+Quote Post

Reply to this topicStart new topic
1 User(s) are reading this topic (1 Guests and 0 Anonymous Users)
0 Members:

 



- Lo-Fi Version Support form
Copyrights and abuse reports form
Time is now: 13th November 2019 - 21:09:31