Welcome Guest ( Log In | Register )

> Svag - Det Mänskliga Tillståndet [ep] (2019), Depressive Rock/Depressive Suicidal Black Metal
post Nov 8 2019, 07:31:13
Post #1

Group: Подсевший
Posts: 37
Releases: 25
On Forums: 6 months 3 weeks
Thanks: 466 time(s)
Unknown


(IMG:http://metalarea.org/images/audiocovers/2019_Nov/acov_tid330022_thumb.jpg)

*Artist: Svag
*Album: Det Mänskliga Tillståndet [ep]
*Year: 2019
*Genre: Depressive Rock/Depressive Suicidal Black Metal
*Country: Sweden (IMG:http://metalarea.org/forum/style_images/flags/Sweden.png)
*Format: mp3@CBR320kbps
*Size: 30MB

Tracklist:
01. Självmord Efter Tio 00:50
02. Glitter 03:21
03. Skjut Mig Som En Hund 03:00
04. Tisdagssjukan 03:14
05. Det Mänskliga Tillståndet 02:42
******************************
Total playing time: 13:07




Extended info
Suicidal rock from Sweden. For fans of Lifelover, Apati, Psychonaut 4.


Technical info
(IMG:http://metalarea.org/images/spectrogram/2019_Nov/97eece172901b0adc3945dd15682edd5.png)
Input File: 01. Självmord Efter Tio.mp3
Channels : 2
Sample Rate : 44100
Precision : 16-bit
Duration : 00:00:50.61 = 2231681 samples = 3795.38 CDDA sectors
File Size : 2.16M
Bit Rate : 341k
Sample Encoding: MPEG audio (layer I, II or III)
Comments :
Title=Självmord Efter Tio
Artist=Svag
Album=Det Mänskliga Tillståndet
Tracknumber=01
Year=2019



Register


Go to the top of the page
  Insert nick Quick quote
+Quote Post
 
Start new topic
Replies (1 - 6)
post Nov 9 2019, 14:26:52
Post #2

ME[ta]LLOMAN
**************
Group: Металариец
Posts: 4,966
Releases: 3
From: Avdeyevka
On Forums: 14 years 1 month
Thanks: 1946 time(s)
Honduras


суицыдалне пунцк (IMG:style_emoticons/default/1488.gif)
по сути - слушатебельно (IMG:style_emoticons/default/9.gif)
Go to the top of the page
  Insert nick Quick quote
+Quote Post
post Nov 9 2019, 17:12:14
Post #3

Правь статус, ####!111
**************
Group: Металариец
Posts: 46,460
Releases: 717
On Forums: 10 years 11 months
Thanks: 38987 time(s)
Russian Federation


Не так swag написали.
Go to the top of the page
  Insert nick Quick quote
+Quote Post
post Nov 10 2019, 06:21:03
Post #4

my church is black
*********
Group: Металариец
Posts: 957
Releases: 3
On Forums: 2 years 11 months
Thanks: 607 time(s)
Cape Verde


Реальнэ пунк, в неформате ему бы место.
По музыке - простенько, но слушать можно. А вот "вокал" мерзотный - на лисий лай похоже. Интро и аутро - невнятные. Фтопку, короче.
Go to the top of the page
  Insert nick Quick quote
+Quote Post
post Nov 10 2019, 11:38:39
Post #5

Пять Литров
*****
Group: Металариец
Posts: 473
Releases: 21
From: Подольск
On Forums: 10 years 11 months
Thanks: 687 time(s)
Russian Federation


задорный такой, весёлый депреснячок, спасибо! (IMG:style_emoticons/default/metaler.gif) (IMG:style_emoticons/default/banana.gif)
Чем-то Alfahanne напоминает и ещё кого-то, хорошо.
Skjut Mig Som En Hund - ваще сугубая вещь.
Go to the top of the page
  Insert nick Quick quote
+Quote Post
post Nov 10 2019, 11:58:34
Post #6
BAN
Banned till
Jun 1 2020, 09:48:21



в мире, полного депрессивного дерьма, бывают и вот такие безмятежные деньки.
берёшь пузырь бухла, любимые наркотики и хоть раз не печалишься)
единственное, жаль что мало материала.
облога тоже понравилась. обрыганская, но цепляет.
Go to the top of the page
  Insert nick Quick quote
+Quote Post
post Nov 10 2019, 13:29:43
Post #7

**************
Group: Металариец
Posts: 2,330
Releases: 14
From: Казань
On Forums: 10 years 8 months
Thanks: 3204 time(s)
Russian Federation


На фото Укупник и Сташевский, в лучшие годы до своих выступлений соло (IMG:style_emoticons/default/11.gif)
Go to the top of the page
  Insert nick Quick quote
+Quote Post

Reply to this topicStart new topic
1 User(s) are reading this topic (1 Guests and 0 Anonymous Users)
0 Members:

 



- Lo-Fi Version Support form
Copyrights and abuse reports form
Time is now: 1st June 2020 - 09:37:15