Welcome Guest ( Log In | Register )

 
Reply to this topicStart new topic
> Vriel - Carmina Tenebris (2019), Black/Death/Doom Metal
post Nov 8 2019, 09:35:11
Post #1

MDM-Thrash Metal
**************
Group: Металариец
Posts: 9,072
Releases: 740
From: Одесса
On Forums: 12 years 3 months
Thanks: 19791 time(s)
Ukraine


(IMG:http://metalarea.org/images/audiocovers/2019_Nov/acov_tid330023_thumb.jpg)

*Artist: Vriel
*Album: Carmina Tenebris
*Year: 2019
*Genre: Black/Death/Doom Metal
*Country: Chile (IMG:http://metalarea.org/forum/style_images/flags/Chile.png)
*Format: mp3@CBR320kbps
*Size: 131MB

Tracklist:
1. Melancolia
2. Nacimiento
3. Carne Joven
4. En La Mente
5. Femina
6. Renacimiento
7. Mago Oscuro
8. Una Memoria
9. Animales Nocturnos
******************************
Total playing time: 57:32


(IMG:http://metalarea.org/images/youtube.png)

Technical info
(IMG:http://metalarea.org/images/spectrogram/2019_Nov/4e8160688e1b789b291b8a456858bda5.png)
Input File: 02 - Nacimiento.mp3
Channels : 2
Sample Rate : 44100
Precision : 16-bit
Duration : 00:08:34.28 = 22679660 samples = 38570.9 CDDA sectors
File Size : 20.6M
Bit Rate : 320k
Sample Encoding: MPEG audio (layer I, II or III)
Comments :
Title=Nacimiento
Artist=Vriel
Album=Carmina Tenebris
Tracknumber=2
Year=2019
Genre=Death Metal
Discnumber=1



Register


Go to the top of the page
  Insert nick Quick quote
+Quote Post

Reply to this topicStart new topic
2 User(s) are reading this topic (2 Guests and 0 Anonymous Users)
0 Members:

 



- Lo-Fi Version Support form
Copyrights and abuse reports form
Time is now: 18th November 2019 - 09:12:01